<?xml version="1.0" standalone="no"?>
<!DOCTYPE svg PUBLIC "-//W3C//DTD SVG 1.1//EN" "http://www.w3.org/Graphics/SVG/1.1/DTD/svg11.dtd" >
<svg xmlns="http://www.w3.org/2000/svg" xmlns:xlink="http://www.w3.org/1999/xlink" version="1.1">
<metadata></metadata>
<defs>
<font id="roboto_slabthin" horiz-adv-x="1104" >
<font-face units-per-em="2048" ascent="1638" descent="-410" />
<missing-glyph horiz-adv-x="490" />
<glyph unicode="&#xfb01;" horiz-adv-x="1183" d="M71 1027v55h188v158q0 163 85.5 252t237.5 89q67 0 135 -13.5t133 -43.5l-8 -52q-66 29 -121.5 42t-137.5 13q-126 0 -198 -76t-72 -211v-158h626v-1028h163v-54h-380v54h163v973h-572v-973h163v-54h-380v54h163v973h-188z" />
<glyph unicode="&#xfb02;" horiz-adv-x="1303" d="M89 1027v55h170v138q0 172 101.5 266.5t281.5 94.5q88 0 179.5 -17.5t174.5 -56.5h5v-1453h163v-54h-380v54h163v1419q-68 27 -139 40.5t-165 13.5q-169 0 -249.5 -79t-80.5 -228v-138h304v-55h-304v-973h163v-54h-380v54h163v973h-170z" />
<glyph horiz-adv-x="0" />
<glyph unicode="&#xd;" horiz-adv-x="490" />
<glyph horiz-adv-x="0" />
<glyph unicode="&#x9;" horiz-adv-x="0" />
<glyph unicode=" "  horiz-adv-x="490" />
<glyph unicode="&#x09;" horiz-adv-x="490" />
<glyph unicode="&#xa0;" horiz-adv-x="490" />
<glyph unicode="!" horiz-adv-x="437" d="M143 0v134h95v-134h-95zM163 478v978h54v-978h-54z" />
<glyph unicode="&#x22;" horiz-adv-x="665" d="M166 1122l5 268v170h55v-167l-10 -271h-50zM347 1122l6 268v170h54v-167l-10 -271h-50z" />
<glyph unicode="#" horiz-adv-x="1246" d="M63 410v52h281l95 524h-300v54h310l75 416h56l-76 -416h365l76 416h56l-76 -416h254v-54h-264l-96 -524h285v-52h-294l-75 -410h-56l75 410h-364l-74 -410h-56l74 410h-271zM400 462h363l96 524h-365z" />
<glyph unicode="$" horiz-adv-x="1086" d="M83 403l2 6h46q0 -199 121.5 -288t289.5 -89q163 0 262 92t99 220q0 130 -79 205.5t-292 152.5q-215 71 -311.5 156t-96.5 252q0 160 104.5 259.5t281.5 106.5v187h55v-187q181 -10 281.5 -120.5t97.5 -303.5l-2 -5h-47q0 166 -95 271.5t-265 105.5q-174 0 -265.5 -91.5 t-91.5 -220.5q0 -131 73.5 -208t297.5 -150q210 -73 309 -158t99 -250q0 -161 -104 -258.5t-277 -107.5v-188h-55v187q-189 6 -316 108t-122 316z" />
<glyph unicode="%" horiz-adv-x="1457" d="M77 1099v77q0 126 76 213.5t196 87.5q119 0 195 -87.5t76 -213.5v-77q0 -126 -75.5 -212.5t-193.5 -86.5q-122 0 -198 86.5t-76 212.5zM132 1099q0 -100 56.5 -172t162.5 -72q102 0 158 72t56 172v77q0 100 -56.5 173t-159.5 73t-160 -73.5t-57 -172.5v-77zM394 162 l711 1138l45 -31l-711 -1138zM833 279v78q0 125 75.5 212.5t195.5 87.5t196 -87t76 -213v-78q0 -126 -75.5 -213t-194.5 -87q-121 0 -197 87t-76 213zM888 279q0 -101 56 -173t162 -72q103 0 159 72t56 173v78q0 106 -56 175.5t-161 69.5q-103 0 -159.5 -70t-56.5 -175v-78z " />
<glyph unicode="&#x26;" horiz-adv-x="1253" d="M74 352q0 114 67.5 211t188.5 199l51 41q-82 103 -121 188t-39 176q0 149 81.5 229.5t223.5 80.5q132 0 204 -72t72 -190q0 -84 -38.5 -142.5t-108.5 -114.5l-202 -161l475 -540q54 76 84.5 171t30.5 204h55q0 -125 -35 -227.5t-98 -188.5l185 -211l-2 -5h-60l-157 177 l-8 -8t-4 -5q-90 -89 -188.5 -137t-222.5 -48q-202 0 -318 100.5t-116 272.5zM128 352q0 -134 98 -226.5t282 -92.5q110 0 211 47.5t177 135.5l-449 509q-8 8 -15.5 17t-18.5 22l-52 -41q-137 -118 -185 -205.5t-48 -165.5zM276 1169q0 -79 35 -163t110 -172l209 166 q60 50 88 103.5t28 111.5q0 94 -56.5 151t-163.5 57q-120 0 -185 -72.5t-65 -181.5z" />
<glyph unicode="'" horiz-adv-x="421" d="M166 1122l15 267v171h55v-169l-20 -269h-50z" />
<glyph unicode="(" horiz-adv-x="615" d="M114 566v20q0 338 120.5 632.5t290.5 397.5h6l16 -36q-153 -101 -266 -387.5t-113 -602.5v-26q0 -317 113 -603.5t266 -387.5l-16 -36h-6q-172 105 -291.5 390.5t-119.5 638.5z" />
<glyph unicode=")" horiz-adv-x="608" d="M11 -427q152 101 265.5 387.5t113.5 603.5v26q0 316 -113.5 602.5t-265.5 387.5l16 36h6q169 -103 290 -397.5t121 -632.5v-20q0 -353 -120 -638.5t-291 -390.5h-6z" />
<glyph unicode="*" horiz-adv-x="948" d="M66 1141l18 54l362 -133l1 394h56l-7 -395l352 143l20 -53l-360 -137l249 -317l-47 -33l-242 322l-228 -325l-45 32l234 324z" />
<glyph unicode="+" horiz-adv-x="1145" d="M73 649v53h462v504h55v-504h481v-53h-481v-503h-55v503h-462z" />
<glyph unicode="," horiz-adv-x="383" d="M92 -223q46 61 67.5 117.5t21.5 130.5v134h54v-132q0 -88 -28 -158t-78 -124z" />
<glyph unicode="-" horiz-adv-x="789" d="M154 599v54h470v-54h-470z" />
<glyph unicode="." horiz-adv-x="444" d="M145 0v130h86v-130h-86z" />
<glyph unicode="/" horiz-adv-x="776" d="M0 -125l608 1581h59l-608 -1581h-59z" />
<glyph unicode="0" horiz-adv-x="1150" d="M121 574v308q0 284 116 439.5t327 155.5t327.5 -155.5t116.5 -439.5v-308q0 -285 -115.5 -440t-326.5 -155t-328 155.5t-117 439.5zM175 576q0 -252 100.5 -397.5t290.5 -145.5q189 0 288.5 145t99.5 398v306q0 254 -100 397.5t-290 143.5t-289.5 -143.5t-99.5 -397.5 v-306z" />
<glyph unicode="1" horiz-adv-x="821" d="M63 1330v50l392 84v-1410h293v-54h-640v54h293v1352z" />
<glyph unicode="2" d="M76 1052q-5 177 111.5 301t311.5 124q181 0 290.5 -102.5t109.5 -288.5q0 -121 -78.5 -247t-221.5 -293l-417 -487l2 -5h739v239h54v-293h-871v54l477 550q136 157 198.5 271t62.5 211q0 159 -88 248t-257 89q-179 0 -277 -105t-98 -272h-46z" />
<glyph unicode="3" horiz-adv-x="1098" d="M75 399l2 6h46q0 -162 118.5 -267t297.5 -105q180 0 280 92.5t100 256.5q0 170 -114.5 251.5t-310.5 81.5h-111v56h111q183 0 288 91t105 224q0 147 -90.5 242t-266.5 95q-162 0 -269 -95t-107 -253h-46l-2 6q-5 177 118.5 286.5t305.5 109.5q188 0 299.5 -106.5 t111.5 -288.5q0 -115 -72.5 -206t-195.5 -131q142 -35 221 -127t79 -232q0 -190 -121 -298.5t-313 -108.5q-185 0 -327 109.5t-137 310.5z" />
<glyph unicode="4" horiz-adv-x="1170" d="M63 397v30l695 1029h65v-1005h252v-54h-252v-343h163v-54h-380v54h163v343h-706zM147 451h622v929l-6 2l-78 -129z" />
<glyph unicode="5" horiz-adv-x="1061" d="M97 377l2 6h47q0 -172 96 -261t261 -89q194 0 284.5 107t90.5 322q0 184 -90.5 290t-253.5 106q-160 0 -251.5 -53.5t-131.5 -158.5l-41 16l78 794h700v-191h-54v138h-597l-61 -618q63 63 137.5 95t219.5 36q174 5 287 -119t113 -333q0 -223 -105 -354t-325 -131 q-177 0 -294 100.5t-112 297.5z" />
<glyph unicode="6" horiz-adv-x="1107" d="M121 552v328q0 292 128 444.5t325 152.5q76 0 148.5 -16.5t136.5 -53.5l-21 -51q-66 38 -122.5 52.5t-141.5 14.5q-175 0 -287 -134.5t-112 -407.5v-175q47 109 150.5 180t239.5 71q197 0 309 -136t112 -361q0 -207 -121.5 -344t-309.5 -137q-193 0 -313.5 150 t-120.5 423zM175 553q0 -248 104 -384.5t276 -136.5q167 0 272 126t105 302q0 202 -96 322.5t-278 120.5q-153 0 -267.5 -102.5t-114.5 -244.5h-1v-3z" />
<glyph unicode="7" d="M76 1163v293h930v-54q-215 -250 -365.5 -570.5t-195.5 -740.5l-6 -91h-54l6 91q43 394 183.5 719t366.5 592h-811v-239h-54z" />
<glyph unicode="8" horiz-adv-x="1123" d="M92 379q0 133 84.5 231t224.5 135q-122 37 -195 127.5t-73 213.5q0 184 118.5 287.5t303.5 103.5q183 0 303 -104t120 -287q0 -122 -74.5 -213t-195.5 -128q139 -38 225.5 -136t86.5 -230q0 -192 -130.5 -296t-332.5 -104q-206 0 -335.5 104t-129.5 296zM146 374 q0 -161 115 -251t296 -90q176 0 292 90.5t116 250.5q0 154 -118 249t-292 95q-177 0 -293 -95t-116 -249zM187 1091q0 -146 104 -232.5t266 -86.5q157 0 262 87t105 232q0 143 -107 237.5t-262 94.5q-161 0 -264.5 -90.5t-103.5 -241.5z" />
<glyph unicode="9" horiz-adv-x="1125" d="M84 958q0 215 123 367t313 152q200 0 321 -136t121 -418v-343q0 -299 -124 -450t-337 -151q-78 0 -156 16t-157 47l16 57q75 -34 143 -50t154 -16q188 0 293.5 138t105.5 407v123q-56 -109 -158.5 -171t-229.5 -62q-188 0 -308 143.5t-120 346.5zM146 958 q0 -178 100 -307.5t266 -129.5q148 0 248 85.5t140 204.5v111q0 256 -102.5 378.5t-273.5 122.5q-168 0 -273 -140t-105 -325z" />
<glyph unicode=":" horiz-adv-x="364" d="M118 0v130h86v-130h-86zM118 0zM118 949v130h86v-130h-86z" />
<glyph unicode=";" horiz-adv-x="364" d="M76 0zM76 -223q46 61 67.5 117.5t21.5 130.5v134h54v-132q0 -88 -28 -158t-78 -124zM125 952v130h86v-130h-86z" />
<glyph unicode="&#x3c;" horiz-adv-x="1027" d="M76 515v50l837 378v-58l-661 -308l-119 -37v-6l119 -36l661 -303v-59z" />
<glyph unicode="=" horiz-adv-x="1127" d="M147 436v54h834v-54h-834zM147 843v54h834v-54h-834z" />
<glyph unicode="&#x3e;" horiz-adv-x="1052" d="M125 137v59l660 307l118 36v6l-118 37l-660 304v58l836 -378v-50z" />
<glyph unicode="?" horiz-adv-x="901" d="M65 1122q-2 170 96.5 262.5t253.5 92.5q164 0 258.5 -101t94.5 -266q0 -141 -62.5 -243t-190.5 -217q-69 -53 -84 -101.5t-15 -148.5h-54q1 117 20.5 165.5t104.5 126.5q121 116 174 197.5t53 222.5q0 146 -78 229t-221 83q-142 0 -220 -84.5t-81 -223.5h-46zM358 0v106 h82v-106h-82z" />
<glyph unicode="@" horiz-adv-x="1799" d="M86 478q18 427 255.5 680t616.5 253q402 0 592.5 -234t173.5 -654q-10 -219 -114 -381.5t-296 -162.5q-83 0 -135 61t-61 169q-55 -114 -139 -172t-193 -58q-136 0 -203 119t-48 318q23 250 144 401t293 151q83 0 135 -27.5t115 -82.5l-49 -565q-11 -152 36.5 -205.5 t107.5 -53.5q158 0 248.5 134.5t101.5 354.5q20 396 -154 613.5t-559 217.5q-336 0 -564.5 -239.5t-248.5 -636.5q-20 -383 174.5 -629.5t551.5 -246.5q87 0 177.5 22t152.5 58l24 -46q-62 -40 -164 -64.5t-194 -24.5q-380 0 -588 249.5t-189 681.5zM589 416 q-19 -167 31.5 -275t163.5 -108q108 0 194 66.5t144 245.5l42 486q-34 39 -82.5 60.5t-112.5 21.5q-142 0 -248 -126.5t-132 -370.5z" />
<glyph unicode="A" horiz-adv-x="1472" d="M55 0v54h107l524 1402h66l525 -1402h107v-54h-309v54h143l-143 381h-712l-142 -381h143v-54h-309zM383 489h672l-305 820l-28 82h-6l-27 -82z" />
<glyph unicode="B" horiz-adv-x="1303" d="M71 0v54h163v1348h-163v54h163h383q226 0 351 -93t125 -280q0 -130 -67 -219t-189 -111q136 -18 229 -119t93 -233q0 -191 -123.5 -296t-326.5 -105h-638zM288 54h421q184 0 290 91t106 254q0 134 -101.5 227t-284.5 93h-431v-665zM288 773h349q199 0 300 77.5t101 236.5 q0 156 -106.5 235.5t-314.5 79.5h-329v-629z" />
<glyph unicode="C" horiz-adv-x="1373" d="M130 719v18q0 330 176 535t461 205q158 0 286.5 -62t202.5 -169v-254h-55v234q-67 90 -179 143.5t-255 53.5q-259 0 -421 -189t-162 -495v-20q0 -307 161 -496.5t412 -189.5q144 0 261 53.5t183 143.5v234h55v-254q-73 -107 -206 -169t-293 -62q-277 0 -452 205.5 t-175 534.5z" />
<glyph unicode="D" horiz-adv-x="1386" d="M71 0v54h163v1348h-163v54h163h403q251 0 426 -180t175 -459v-178q0 -280 -175 -459.5t-426 -179.5h-566zM288 54h349q227 0 387 166t160 419v181q0 250 -160 416t-387 166h-349v-1348z" />
<glyph unicode="E" horiz-adv-x="1270" d="M71 0v54h163v1348h-163v54h1049v-293h-54v239h-778v-616h630v-54h-630v-678h778v239h54v-293h-1049z" />
<glyph unicode="F" horiz-adv-x="1246" d="M71 0v54h163v1348h-163v54h1065v-293h-54v239h-794v-630h646v-56h-646v-662h163v-54h-380z" />
<glyph unicode="G" horiz-adv-x="1449" d="M130 720v38q0 319 173 519t451 200q166 0 294.5 -57.5t204.5 -163.5v-244h-54l1 224q-69 89 -182 138t-264 49q-257 0 -413.5 -185t-156.5 -478v-40q0 -305 155.5 -496t411.5 -191q161 0 281.5 47t161.5 101v384h-315v55h369v-464q-46 -64 -176.5 -120.5t-320.5 -56.5 q-277 0 -449 205.5t-172 535.5z" />
<glyph unicode="H" horiz-adv-x="1506" d="M71 0v54h163v1348h-163v54h380v-54h-163v-653h930v653h-163v54h163h54h163v-54h-163v-1348h163v-54h-380v54h163v641h-930v-641h163v-54h-380z" />
<glyph unicode="I" horiz-adv-x="598" d="M109 0v54h163v1348h-163v54h380v-54h-163v-1348h163v-54h-380z" />
<glyph unicode="J" horiz-adv-x="1137" d="M46 395l2 6h46q0 -178 97 -273t280 -95q153 0 254 105t101 284v980h-163v54h380v-54h-163v-980q0 -203 -114.5 -323t-294.5 -120q-200 0 -315 106q-110 102 -110 293v17z" />
<glyph unicode="K" horiz-adv-x="1388" d="M71 0v54h163v1348h-163v54h380v-54h-163v-638h238l565 633l-2 5h-168v54h361v-54h-115l-596 -672l639 -676h118v-54h-361v54h163l3 6l-622 651h-223v-657h163v-54h-380z" />
<glyph unicode="L" horiz-adv-x="1161" d="M71 0v54h163v1348h-163v54h163h55h163v-54h-163v-1348h693v239h54v-293h-965z" />
<glyph unicode="M" horiz-adv-x="1824" d="M71 0v54h163v1348h-163v54h163h77l596 -1370h6l598 1370h242v-54h-163v-1348h163v-54h-380v54h163v1307l-6 2l-598 -1363h-43l-595 1356l-6 -2v-1300h163v-54h-380z" />
<glyph unicode="N" horiz-adv-x="1517" d="M71 0v54h163v1348h-163v54h163h55l934 -1353l6 2v1297h-163v54h217h163v-54h-163v-1402h-54l-934 1356l-6 -2v-1300h163v-54h-381z" />
<glyph unicode="O" horiz-adv-x="1488" d="M130 719v18q0 335 168 537.5t440 202.5q271 0 440.5 -202.5t169.5 -537.5v-18q0 -336 -168.5 -538t-439.5 -202q-272 0 -441 202.5t-169 537.5zM185 719q0 -311 151 -498.5t404 -187.5t403.5 187.5t150.5 498.5v20q0 309 -151.5 496.5t-404.5 187.5q-252 0 -402.5 -187.5 t-150.5 -496.5v-20z" />
<glyph unicode="P" horiz-adv-x="1255" d="M71 0v54h163v1348h-163v54h163h405q226 0 348 -113.5t122 -301.5q0 -190 -121.5 -303t-348.5 -113h-351v-571h163v-54h-380zM288 679h351q207 0 311.5 103t104.5 257q0 158 -104 260.5t-312 102.5h-351v-723z" />
<glyph unicode="Q" horiz-adv-x="1478" d="M130 719v18q0 335 168 537.5t440 202.5q271 0 440.5 -202.5t169.5 -537.5v-18q0 -232 -83.5 -404.5t-231.5 -258.5l310 -221l-39 -38l-325 231q-55 -25 -115 -37t-124 -12q-272 0 -441 202.5t-169 537.5zM185 719q0 -311 151 -498.5t404 -187.5t403.5 187.5t150.5 498.5 v20q0 309 -151.5 496.5t-404.5 187.5q-252 0 -402.5 -187.5t-150.5 -496.5v-20z" />
<glyph unicode="R" horiz-adv-x="1364" d="M71 -1v54h163v1348h-163v54h163h414q230 0 354 -99.5t124 -290.5q0 -123 -78.5 -223.5t-214.5 -130.5q157 -27 225 -115t68 -225v-147q0 -86 29.5 -128t87.5 -42h51v-54h-51q-97 0 -134 65.5t-37 160.5v143q0 148 -101.5 231t-289.5 83h-393v-630h163v-54h-380zM288 737 h350q223 0 328.5 94t105.5 234q0 163 -106.5 249.5t-317.5 86.5h-360v-664z" />
<glyph unicode="S" horiz-adv-x="1198" d="M100 204v240h54v-217q78 -102 199 -148t251 -46q192 0 315.5 88t123.5 228q0 137 -100.5 219t-348.5 150q-249 67 -364.5 152.5t-115.5 249.5q0 163 136 260t347 97q164 0 286.5 -56.5t193.5 -169.5v-229h-54v204q-64 97 -171.5 147t-254.5 50q-198 0 -313.5 -88.5 t-115.5 -212.5t95.5 -206t345.5 -146q242 -64 365.5 -156.5t123.5 -262.5q0 -173 -141 -272.5t-353 -99.5q-146 0 -280.5 54.5t-223.5 170.5z" />
<glyph unicode="T" horiz-adv-x="1277" d="M80 1163v293h1114v-293h-54v239h-476v-1348h163v-54h-380v54h163v1348h-476v-239h-54z" />
<glyph unicode="U" horiz-adv-x="1441" d="M60 1402v54h163h54h163v-54h-163v-933q0 -205 124 -320.5t320 -115.5q195 0 319 115.5t124 320.5v933h-163v54h217h163v-54h-163v-933q0 -238 -138 -364t-359 -126q-223 0 -360.5 126.5t-137.5 363.5v933h-163z" />
<glyph unicode="V" horiz-adv-x="1442" d="M57 1402v54h309v-54h-143l469 -1260l26 -79h6l26 79l469 1260h-143v54h309v-54h-107l-524 -1402h-66l-524 1402h-107z" />
<glyph unicode="W" horiz-adv-x="1960" d="M57 1402v54h310v-54h-150l269 -1072l63 -229h6l63 229l364 1126h60l362 -1126l62 -229h6l65 229l266 1072h-149v54h309v-54h-101l-358 -1402h-61l-381 1214l-48 145h-6l-46 -145l-384 -1214h-61l-359 1402h-101z" />
<glyph unicode="X" horiz-adv-x="1391" d="M63 0v54h115l486 689l-466 659h-115v54h338v-54h-156l432 -617l433 617h-155v54h337v-54h-115l-465 -659l486 -689h115v-54h-337v54h155l-454 647l-453 -647h155v-54h-336z" />
<glyph unicode="Y" horiz-adv-x="1429" d="M55 1402v54h316v-54h-131l449 -755l26 -50l27 50l451 755h-131v54h316v-54h-120l-514 -849v-499h163v-54h-381v54h163v499l-515 849h-119z" />
<glyph unicode="Z" horiz-adv-x="1220" d="M92 0v44l929 1359h-835v-240h-54v293h964v-38l-930 -1364h908v239h54v-293h-1036z" />
<glyph unicode="[" horiz-adv-x="527" d="M157 -312v1976h283v-54h-229v-1868h229v-54h-283z" />
<glyph unicode="\" horiz-adv-x="784" d="M36 1456h58l608 -1581h-58z" />
<glyph unicode="]" horiz-adv-x="505" d="M23 -258h228v1868h-228v54h283v-1976h-283v54z" />
<glyph unicode="^" horiz-adv-x="828" d="M71 729l299 727h52l299 -727h-61l-222 543l-40 114h-6l-43 -114l-219 -543h-59z" />
<glyph unicode="_" horiz-adv-x="1134" d="M119 0h846v-54h-846v54z" />
<glyph unicode="`" horiz-adv-x="546" d="M84 1471l2 5h89l220 -261l-2 -5h-75z" />
<glyph unicode="a" horiz-adv-x="1132" d="M104 274q0 146 133 238t357 92h269v158q0 135 -86.5 210.5t-243.5 75.5q-103 0 -192.5 -29t-152.5 -80l-1 -173h-54l1 206q77 57 181.5 93.5t217.5 36.5q174 0 279 -88t105 -254v-542q0 -42 3.5 -83t11.5 -81h130v-54h-177q-13 71 -17.5 106.5t-4.5 76.5v16 q-62 -97 -173.5 -158.5t-262.5 -61.5q-150 0 -236.5 81.5t-86.5 213.5zM158 270q0 -101 74 -169.5t195 -68.5q153 0 266 69t170 191v257h-266q-199 0 -319 -77.5t-120 -201.5z" />
<glyph unicode="b" horiz-adv-x="1088" d="M-8 1506v54h217v-675q54 101 146 159t221 58q191 0 299.5 -151.5t108.5 -408.5v-21q0 -250 -108 -396t-298 -146q-129 0 -223.5 52.5t-147.5 141.5l-7 -173h-45v1506h-163zM209 274q39 -110 132.5 -175.5t237.5 -65.5q171 0 260 132t89 356v21q0 225 -90 365.5 t-261 140.5q-158 0 -244.5 -80.5t-123.5 -197.5v-496z" />
<glyph unicode="c" horiz-adv-x="1086" d="M104 520v42q0 242 117 391t323 149q122 0 226 -50.5t167 -136.5v-232h-54v212q-57 70 -143.5 111.5t-195.5 41.5q-190 0 -288 -136t-98 -350v-42q0 -216 98 -351.5t290 -135.5q137 0 242 75t105 225h46l2 -6v-10q-1 -151 -117 -243q-120 -94 -278 -95q-207 0 -324.5 149 t-117.5 392z" />
<glyph unicode="d" horiz-adv-x="1205" d="M104 521v21q0 257 108 408.5t300 151.5q128 0 220 -58.5t147 -160.5v623h-163v54h163h54v-1506h163v-54h-215l-2 173q-53 -89 -147 -141.5t-222 -52.5q-191 0 -298.5 146t-107.5 396zM160 521q0 -224 88.5 -356t260.5 -132q141 0 234.5 64t135.5 171v507 q-39 116 -126 194.5t-242 78.5q-172 0 -261.5 -140.5t-89.5 -365.5v-21z" />
<glyph unicode="e" d="M112 500v64q0 233 130 385.5t321 152.5q183 0 298.5 -120t115.5 -322v-83h-811v-13v-64q0 -196 115 -331.5t285 -135.5q121 0 202.5 33t139.5 99l29 -42q-64 -71 -155.5 -107.5t-215.5 -36.5q-185 0 -319.5 149.5t-134.5 371.5zM174 637l3 -6h746v33q0 165 -100 274.5 t-260 109.5q-161 0 -268 -117.5t-121 -293.5z" />
<glyph unicode="f" horiz-adv-x="722" d="M89 1027v55h188v178q0 153 74.5 237t208.5 84q33 0 65.5 -4t62.5 -13l-8 -52q-32 8 -56.5 11.5t-62.5 3.5q-108 0 -169 -71t-61 -196v-178h286v-55h-286v-973h163v-54h-380v54h163v973h-188z" />
<glyph unicode="g" horiz-adv-x="1140" d="M112 521v21q0 257 108 408.5t300 151.5q128 0 220.5 -59t146.5 -161l8 200h46v-1068q0 -208 -109.5 -329.5t-299.5 -121.5q-79 0 -164.5 16.5t-149.5 45.5l16 54q73 -32 141 -47.5t155 -15.5q173 0 264.5 106.5t91.5 291.5v157q-54 -88 -147.5 -140t-220.5 -52 q-191 0 -298.5 146t-107.5 396zM167 521q0 -224 89 -356t261 -132q144 0 236.5 66t132.5 177v491q-38 119 -123.5 200t-243.5 81q-172 0 -262 -140.5t-90 -365.5v-21z" />
<glyph unicode="h" horiz-adv-x="1278" d="M62 0v54h163v1452h-163v54h217v-706q50 118 147 183t237 65q169 0 256.5 -107t87.5 -337v-604h163v-54h-381v54h163v606q0 213 -78.5 300.5t-209.5 87.5q-175 0 -268 -104.5t-117 -267.5v-622h163v-54h-380z" />
<glyph unicode="i" horiz-adv-x="609" d="M89 0v54h163v974h-163v54h217v-1028h163v-54h-380zM252 1422v138h54v-138h-54z" />
<glyph unicode="j" horiz-adv-x="555" d="M-13 -417l13 52q18 -6 45.5 -12t53.5 -6q110 0 170.5 77t60.5 217v1117h-163v54h217v-1171q0 -167 -75 -257.5t-210 -90.5q-30 0 -56 5t-56 15zM324 1426v134h54v-134h-54z" />
<glyph unicode="k" horiz-adv-x="1152" d="M62 0v54h163v1452h-163v54h217v-953h127l430 415l-2 6h-119v54h321v-54h-122l-447 -439l489 -535h117v-54h-320v54h126l2 5l-454 494h-148v-499h163v-54h-380z" />
<glyph unicode="l" horiz-adv-x="581" d="M82 0v54h163v1452h-163v54h217v-1506h163v-54h-380z" />
<glyph unicode="m" horiz-adv-x="1980" d="M89 0v54h163v974h-163v54h210l7 -223q49 115 141 179t224 64q140 0 227.5 -71.5t120.5 -220.5q43 138 140.5 215.5t243.5 77.5q179 0 272 -117t93 -368v-563h163v-54h-381v54h163v565q0 235 -84 332t-224 97q-172 0 -260 -103.5t-110 -267.5q0 -20 1 -34.5t1 -28.5v-561 h163v-54h-381v54h163v565q0 236 -84 332.5t-225 96.5q-168 0 -255 -98.5t-111 -255.5v-640h163v-54h-381z" />
<glyph unicode="n" horiz-adv-x="1320" d="M89 0v54h163v974h-163v54h209l7 -223q49 116 143 179.5t232 63.5q177 0 265.5 -111.5t88.5 -353.5v-583h163v-54h-380v54h163v585q0 225 -80.5 317t-218.5 92q-175 0 -264 -104.5t-111 -267.5v-622h163v-54h-380z" />
<glyph unicode="o" horiz-adv-x="1155" d="M104 520v42q0 238 131.5 389t341.5 151q211 0 342.5 -151t131.5 -389v-42q0 -239 -131.5 -390t-340.5 -151q-211 0 -343 151t-132 390zM158 520q0 -204 114 -345.5t307 -141.5q190 0 304 142t114 345v42q0 199 -115 342.5t-305 143.5q-191 0 -305 -143.5t-114 -342.5v-42 z" />
<glyph unicode="p" horiz-adv-x="1161" d="M65 -362h163v1390h-163v54h205l11 -194q54 100 147 157t221 57q191 0 299.5 -151.5t108.5 -408.5v-21q0 -250 -108 -396t-298 -146q-127 0 -221.5 51t-147.5 138v-530h163v-54h-380v54zM282 269q40 -108 134 -172t236 -64q171 0 260.5 132t89.5 356v21q0 225 -90.5 365.5 t-261.5 140.5q-157 0 -244 -79t-124 -194v-506z" />
<glyph unicode="q" horiz-adv-x="1136" d="M104 521v21q0 257 108 408.5t300 151.5q127 0 219.5 -57.5t147.5 -158.5l5 196h49v-1444h163v-54h-380v54h163v532q-54 -88 -148 -139.5t-221 -51.5q-191 0 -298.5 146t-107.5 396zM160 521q0 -224 88.5 -356t260.5 -132q143 0 236.5 65.5t133.5 175.5v494 q-38 115 -126 197.5t-242 82.5q-172 0 -261.5 -140.5t-89.5 -365.5v-21z" />
<glyph unicode="r" horiz-adv-x="803" d="M89 0v54h163v974h-163v54h163h44l10 -188v-37q45 116 134 180.5t219 64.5q23 0 42.5 -3.5t33.5 -7.5l-6 -48l-70 6q-145 0 -235.5 -93.5t-117.5 -246.5v-655h163v-54h-380z" />
<glyph unicode="s" horiz-adv-x="1009" d="M103 122v193h54v-163q59 -63 146 -91t184 -28q150 0 238 70t88 162q0 86 -73.5 156.5t-256.5 110.5q-191 40 -278.5 106.5t-87.5 190.5q0 116 98 194.5t264 78.5q116 0 214.5 -40t158.5 -107v-202h-54v175q-52 58 -132.5 89t-186.5 31q-152 0 -230 -65.5t-78 -151.5 q0 -85 66 -145t262 -105q181 -42 274.5 -114.5t93.5 -202.5q0 -127 -104 -206t-276 -79q-118 0 -217.5 38t-166.5 105z" />
<glyph unicode="t" horiz-adv-x="719" d="M65 1027v55h200v292h55v-292h266v-55h-266v-748q0 -133 45 -189.5t119 -56.5q32 0 57 2t69 7l10 -49q-30 -8 -61.5 -11t-71.5 -3q-109 0 -165.5 71t-56.5 229v748h-200z" />
<glyph unicode="u" horiz-adv-x="1222" d="M44 1028v54h143h54v-619q0 -220 81 -325t219 -105q169 0 259.5 83t115.5 220v692h-163v54h163h55v-1028h163v-54h-208l-8 194q-51 -103 -145.5 -159t-229.5 -56q-167 0 -261.5 118.5t-94.5 367.5v563h-143z" />
<glyph unicode="v" horiz-adv-x="1165" d="M52 1028v54h318v-54h-142l313 -799l51 -146h6l52 146l312 799h-142v54h318v-54h-118l-400 -1027l1 -1h-52l-399 1028h-118z" />
<glyph unicode="w" horiz-adv-x="1687" d="M52 1028v54h322v-54h-148l206 -715l56 -222l6 -1l71 223l243 769h55l242 -769l70 -223l6 1l58 222l204 715h-147v54h323v-54h-113l-299 -1028h-54l-267 813l-48 183h-6l-52 -183l-263 -813h-54l-299 1028h-112z" />
<glyph unicode="x" horiz-adv-x="1192" d="M82 0v54h126l361 501l-341 473h-126v54h318v-54h-124l307 -426l306 426h-124v54h318v-54h-126l-341 -473l361 -501h126v-54h-317v54h124l-328 454l-327 -454h124v-54h-317z" />
<glyph unicode="y" horiz-adv-x="1185" d="M55 1028v54h319v-54h-142l335 -832l40 -108h6l6 16l353 924h-142v54h320v-54h-118l-460 -1208q-44 -114 -102.5 -185.5t-186.5 -71.5q-19 0 -42 3.5t-34 7.5l9 51q11 -3 33 -6t34 -3q92 0 143.5 54t91.5 160l65 176l-410 1022h-118z" />
<glyph unicode="z" horiz-adv-x="1077" d="M120 0v44l711 983h-656v-238h-54v293h783v-48l-711 -980h716v239h54v-293h-843z" />
<glyph unicode="{" horiz-adv-x="693" d="M63 543v66q128 0 189 72t61 204v247q0 171 73 290.5t246 174.5l15 -45q-143 -46 -211.5 -155.5t-68.5 -264.5v-247q0 -120 -52 -202t-159 -107q107 -26 159 -109t52 -202v-245q0 -154 70.5 -260t214.5 -155l-20 -46q-173 55 -246 173t-73 288v245q0 132 -61 205t-189 73z " />
<glyph unicode="|" horiz-adv-x="405" d="M150 -270v1726h54v-1726h-54z" />
<glyph unicode="}" horiz-adv-x="692" d="M27 -395q143 49 213.5 155t70.5 260v245q0 119 51.5 202t159.5 109q-108 25 -159.5 107t-51.5 202v247q0 155 -68.5 264.5t-210.5 155.5l14 45q172 -55 245.5 -174.5t73.5 -290.5v-247q0 -132 61 -204t189 -72v-66q-128 0 -189 -73.5t-61 -204.5v-245q0 -171 -73 -288.5 t-246 -172.5z" />
<glyph unicode="~" horiz-adv-x="1368" d="M121 474q0 128 73.5 214t188.5 86q86 0 158.5 -39.5t164.5 -120.5q67 -62 125 -90t121 -28q86 0 144.5 70.5t58.5 186.5l61 -13q0 -121 -75.5 -209t-188.5 -88q-87 0 -158.5 38t-162.5 121q-68 59 -127.5 88.5t-120.5 29.5q-89 0 -146 -68t-57 -190z" />
<glyph unicode="&#xa1;" horiz-adv-x="435" d="M142 918v164h95v-164h-95zM162 -374v978h54v-978h-54z" />
<glyph unicode="&#xa2;" horiz-adv-x="1063" d="M141 520v42q0 240 115.5 388.5t319.5 151.5v216h55v-218q106 -10 196 -59.5t147 -125.5v-232h-54v212q-57 70 -143.5 111.5t-195.5 41.5q-190 0 -288 -136t-98 -350v-42q0 -216 98 -351.5t290 -135.5q137 0 242 75t105 225h46l2 -6q4 -146 -99 -238t-248 -107v-227h-55 v224q-205 3 -320 151.5t-115 389.5z" />
<glyph unicode="&#xa3;" horiz-adv-x="1151" d="M68 667v54h241l-11 319q0 204 101 320.5t270 116.5q175 0 256 -102t78 -280l-2 -5h-47q0 176 -73.5 254.5t-211.5 78.5q-147 0 -232 -100t-85 -283l11 -319h478v-54h-476l8 -201q0 -125 -36 -235.5t-102 -176.5h755v239h54v-293h-912v54h10q89 16 133 145.5t44 266.5 l-8 201h-243z" />
<glyph unicode="&#xa5;" horiz-adv-x="1381" d="M59 1402v54h315v-54h-129l418 -664l24 -51h5l24 51l417 664h-129v54h316v-54h-121l-455 -726h424v-55h-452v-240h452v-55h-452v-272h163v-54h-380v54h163v272h-450v55h450v240h-450v55h421l-453 726h-121z" />
<glyph unicode="&#xa7;" horiz-adv-x="1197" d="M90 -69l2 5l46 2q0 -199 127 -289t304 -90q185 0 290 80.5t105 209.5q0 120 -80.5 188.5t-307.5 128.5q-245 58 -365.5 142.5t-120.5 242.5q0 108 76 179t211 92q-122 48 -182 120.5t-60 187.5q0 157 123 252t329 95q214 0 333 -111.5t115 -313.5l-2 -6h-46 q0 162 -106.5 269.5t-293.5 107.5q-197 0 -297.5 -81.5t-100.5 -208.5q0 -126 79.5 -194t316.5 -135q252 -64 365 -140.5t113 -232.5q0 -105 -82 -176t-222 -91q131 -50 195.5 -122t64.5 -191q0 -161 -122 -253.5t-328 -92.5q-205 0 -344.5 102.5t-134.5 323.5zM144 553 q0 -130 88 -195.5t361 -142.5l69 -19q161 1 254 67t93 165q0 123 -95.5 194.5t-354.5 143.5q-30 6 -57 13.5t-51 16.5q-152 -7 -229.5 -74t-77.5 -169z" />
<glyph unicode="&#xa8;" horiz-adv-x="956" d="M152 1338v118h137v-118h-137zM622 1338v118h136v-118h-136z" />
<glyph unicode="&#xa9;" horiz-adv-x="1596" d="M92 729q0 315 207 531t503 216q295 0 502.5 -216t207.5 -531q0 -316 -207.5 -533t-502.5 -217t-502.5 217t-207.5 533zM148 729q0 -290 191.5 -492.5t462.5 -202.5q269 0 461.5 202.5t192.5 492.5q0 289 -192 490.5t-462 201.5q-271 0 -462.5 -201.5t-191.5 -490.5z M475 669v119q0 172 88.5 279.5t231.5 107.5q139 0 218 -79.5t76 -227.5l-3 -6h-44q0 129 -64 194.5t-183 65.5q-123 0 -194 -95t-71 -238v-120q0 -145 70.5 -238.5t194.5 -93.5q120 0 183 63.5t63 195.5h44l3 -6q3 -150 -75.5 -229t-217.5 -79q-144 0 -232 107t-88 280z" />
<glyph unicode="&#xaa;" horiz-adv-x="860" d="M106 920q0 101 74 157t215 56h220v69q0 105 -51 163t-148 58q-114 0 -175.5 -47t-61.5 -138l-46 5l-2 6q-5 98 74.5 163t210.5 65q115 0 184.5 -71.5t69.5 -204.5v-314q0 -48 6 -92.5t20 -88.5h-58q-10 28 -15.5 58.5t-6.5 61.5q-40 -58 -106.5 -96t-154.5 -38 q-119 0 -184 61t-65 167zM160 924q0 -84 48 -130.5t148 -46.5q87 0 163 47.5t96 105.5v177h-219q-113 0 -174.5 -44t-61.5 -109z" />
<glyph unicode="&#xab;" horiz-adv-x="905" d="M105 146zM105 516v19l295 370h70l-294 -380l294 -379h-70zM392 516v19l295 370h70l-294 -380l294 -379h-70z" />
<glyph unicode="&#xac;" d="M121 700v53h793v-357h-54v304h-739z" />
<glyph unicode="&#xad;" horiz-adv-x="789" d="M154 599v54h470v-54h-470z" />
<glyph unicode="&#xae;" horiz-adv-x="1595" d="M92 729q0 315 207 531t503 216q295 0 502.5 -216t207.5 -531q0 -316 -207.5 -533t-502.5 -217q-296 0 -503 217t-207 533zM147 729q0 -290 192 -492.5t463 -202.5q269 0 461.5 202.5t192.5 492.5q0 289 -192 490.5t-462 201.5q-271 0 -463 -201.5t-192 -490.5zM570 316 v850h239q143 0 216 -61t73 -179q0 -73 -40 -125t-113 -81q70 -22 101 -75.5t31 -129.5v-56q0 -38 4 -71.5t13 -55.5v-16h-59q-10 21 -12 61.5t-2 82.5v54q0 94 -42 134t-142 40h-212v-372h-55zM625 744h205q91 0 152 48t61 135q0 96 -52.5 140t-181.5 44h-184v-367z" />
<glyph unicode="&#xaf;" horiz-adv-x="986" d="M154 1403v53h627v-53h-627z" />
<glyph unicode="&#xb0;" horiz-adv-x="739" d="M124 1237q0 98 69 169t167 71q95 0 163.5 -71t68.5 -169q0 -100 -68.5 -168.5t-163.5 -68.5q-98 0 -167 68.5t-69 168.5zM179 1237q0 -79 51.5 -130t129.5 -51q76 0 126 51t50 130q0 80 -50 132.5t-126 52.5q-78 0 -129.5 -53t-51.5 -132z" />
<glyph unicode="&#xb1;" d="M75 751v54h443v462h54v-462h419v-54h-419v-462h-54v462h-443zM231 88v54h835v-54h-835z" />
<glyph unicode="&#xb4;" horiz-adv-x="553" d="M100 1217l220 261h78l2 -5l-231 -261h-67z" />
<glyph unicode="&#xb5;" horiz-adv-x="1282" d="M66 1028v54h163h52v-642q0 -223 85 -315t221 -92q184 0 268 93t102 263v639h-163v54h217v-577h2q0 -16 -0.5 -30.5t-1.5 -36.5v-384h163v-54h-204l-11 205q-48 -109 -138 -167.5t-225 -58.5q-103 0 -185.5 45t-129.5 147v-587h-52v1444h-163z" />
<glyph unicode="&#xb6;" horiz-adv-x="1044" d="M78 988q0 207 129.5 337.5t362.5 130.5h342v-54h-163v-1348h163v-54h-380v54h163v466h-125q-234 0 -363 129.5t-129 338.5z" />
<glyph unicode="&#xb7;" horiz-adv-x="480" d="M159 624v152h118v-152h-118z" />
<glyph unicode="&#xb8;" horiz-adv-x="470" d="M103 -386q104 0 180.5 36t76.5 105q0 64 -45.5 89t-163.5 35l25 121h53l-11 -76q91 -7 144 -45.5t53 -123.5q0 -87 -79 -138.5t-226 -51.5z" />
<glyph unicode="&#xba;" horiz-adv-x="904" d="M121 1025v117q0 148 82 241.5t222 93.5t222.5 -93.5t82.5 -241.5v-117q0 -149 -82 -241.5t-221 -92.5q-141 0 -223.5 92.5t-82.5 241.5zM175 1025q0 -125 63 -202.5t189 -77.5q120 0 185 78.5t65 201.5v117q0 122 -65 201.5t-187 79.5q-121 0 -185.5 -79.5t-64.5 -201.5 v-117z" />
<glyph unicode="&#xbb;" horiz-adv-x="897" d="M105 171l293 379l-293 390h70l294 -380v-19l-294 -370h-70zM105 171zM395 171l293 379l-293 390h70l294 -380v-19l-294 -370h-70z" />
<glyph unicode="&#xbf;" horiz-adv-x="839" d="M58 -27q0 140 62 242t191 218q68 52 83.5 100.5t15.5 149.5h54q-2 -118 -21.5 -166.5t-103.5 -125.5q-122 -117 -174.5 -198.5t-52.5 -221.5q0 -146 77.5 -229t221.5 -83q141 0 219 84.5t82 223.5h46l3 -6q1 -170 -97.5 -262.5t-252.5 -92.5q-165 0 -259 101t-94 266z M386 977v106h82v-106h-82z" />
<glyph unicode="&#xc0;" horiz-adv-x="1472" d="M55 0v54h107l524 1402h66l525 -1402h107v-54h-309v54h143l-143 381h-712l-142 -381h143v-54h-309zM55 0zM383 489h672l-305 820l-28 82h-6l-27 -82zM453 1833l2 5h89l220 -261l-2 -5h-75z" />
<glyph unicode="&#xc1;" horiz-adv-x="1472" d="M55 0v54h107l524 1402h66l525 -1402h107v-54h-309v54h143l-143 381h-712l-142 -381h143v-54h-309zM55 0zM383 489h672l-305 820l-28 82h-6l-27 -82zM649 1550l220 261h78l2 -5l-231 -261h-67z" />
<glyph unicode="&#xc2;" horiz-adv-x="1472" d="M55 0v54h107l524 1402h66l525 -1402h107v-54h-309v54h143l-143 381h-712l-142 -381h143v-54h-309zM55 0zM383 489h672l-305 820l-28 82h-6l-27 -82zM466 1599v17l210 206h80l214 -210v-13h-70l-185 186l-183 -186h-66z" />
<glyph unicode="&#xc3;" horiz-adv-x="1472" d="M55 0v54h107l524 1402h66l525 -1402h107v-54h-309v54h143l-143 381h-712l-142 -381h143v-54h-309zM55 0zM383 489h672l-305 820l-28 82h-6l-27 -82zM424 1613q0 80 50 129.5t126 49.5q72 0 153 -62t134 -62q50 0 85.5 39.5t35.5 101.5l55 -10q0 -82 -51 -134t-125 -52 q-76 0 -154 62.5t-133 62.5q-52 0 -86.5 -37t-34.5 -98z" />
<glyph unicode="&#xc4;" horiz-adv-x="1472" d="M55 0v54h107l524 1402h66l525 -1402h107v-54h-309v54h143l-143 381h-712l-142 -381h143v-54h-309zM55 0zM383 489h672l-305 820l-28 82h-6l-27 -82zM416 1671v118h137v-118h-137zM886 1671v118h136v-118h-136z" />
<glyph unicode="&#xc5;" horiz-adv-x="1472" d="M55 0v54h107l524 1402h66l525 -1402h107v-54h-309v54h143l-143 381h-712l-142 -381h143v-54h-309zM55 0zM383 489h672l-305 820l-28 82h-6l-27 -82zM578 1745q0 56 40 97.5t96 41.5q54 0 93.5 -41t39.5 -98t-39 -96t-94 -39q-56 0 -96 39t-40 96zM635 1745 q0 -34 23 -56.5t56 -22.5q32 0 54 22t22 57t-22 58.5t-54 23.5q-33 0 -56 -23.5t-23 -58.5z" />
<glyph unicode="&#xc6;" horiz-adv-x="2026" d="M51 0v54h119l849 1402h776v-293h-54v239h-642l26 -616h588v-54h-586l28 -678h647v239h54v-293h-915v54h160l-15 371h-628l-223 -371h131v-54h-315zM490 478h594l-39 924l-5 1l-57 -105z" />
<glyph unicode="&#xc7;" horiz-adv-x="1373" d="M130 0zM130 719v18q0 330 176 535t461 205q158 0 286.5 -62t202.5 -169v-254h-55v234q-67 90 -179 143.5t-255 53.5q-259 0 -421 -189t-162 -495v-20q0 -307 161 -496.5t412 -189.5q144 0 261 53.5t183 143.5v234h55v-254q-73 -107 -206 -169t-293 -62q-277 0 -452 205.5 t-175 534.5zM674 -386q104 0 180.5 36t76.5 105q0 64 -45.5 89t-163.5 35l25 121h53l-11 -76q91 -7 144 -45.5t53 -123.5q0 -87 -79 -138.5t-226 -51.5z" />
<glyph unicode="&#xc8;" horiz-adv-x="1270" d="M71 0v54h163v1348h-163v54h1049v-293h-54v239h-778v-616h630v-54h-630v-678h778v239h54v-293h-1049zM71 0zM358 1835l2 5h89l220 -261l-2 -5h-75z" />
<glyph unicode="&#xc9;" horiz-adv-x="1270" d="M71 0v54h163v1348h-163v54h1049v-293h-54v239h-778v-616h630v-54h-630v-678h778v239h54v-293h-1049zM71 0zM554 1552l220 261h78l2 -5l-231 -261h-67z" />
<glyph unicode="&#xca;" horiz-adv-x="1270" d="M71 0v54h163v1348h-163v54h1049v-293h-54v239h-778v-616h630v-54h-630v-678h778v239h54v-293h-1049zM71 0zM371 1601v17l210 206h80l214 -210v-13h-70l-185 186l-183 -186h-66z" />
<glyph unicode="&#xcb;" horiz-adv-x="1270" d="M71 0v54h163v1348h-163v54h1049v-293h-54v239h-778v-616h630v-54h-630v-678h778v239h54v-293h-1049zM71 0zM321 1673v118h137v-118h-137zM791 1673v118h136v-118h-136z" />
<glyph unicode="&#xcc;" horiz-adv-x="598" d="M47 0zM47 1835l2 5h89l220 -261l-2 -5h-75zM109 0v54h163v1348h-163v54h380v-54h-163v-1348h163v-54h-380z" />
<glyph unicode="&#xcd;" horiz-adv-x="598" d="M109 0v54h163v1348h-163v54h380v-54h-163v-1348h163v-54h-380zM109 0zM242 1552l220 261h78l2 -5l-231 -261h-67z" />
<glyph unicode="&#xce;" horiz-adv-x="598" d="M60 0zM60 1601v17l210 206h80l214 -210v-13h-70l-185 186l-183 -186h-66zM109 0v54h163v1348h-163v54h380v-54h-163v-1348h163v-54h-380z" />
<glyph unicode="&#xcf;" horiz-adv-x="598" d="M10 0zM10 1673v118h137v-118h-137zM109 0v54h163v1348h-163v54h380v-54h-163v-1348h163v-54h-380zM480 1673v118h136v-118h-136z" />
<glyph unicode="&#xd0;" horiz-adv-x="1416" d="M101 0v54h163v659h-128v54h128v635h-163v54h566q251 0 426 -180t175 -459v-178q0 -280 -175 -459.5t-426 -179.5h-566zM318 54h349q227 0 387 166t160 419v181q0 250 -160 416t-387 166h-349v-635h405v-54h-405v-659z" />
<glyph unicode="&#xd1;" horiz-adv-x="1517" d="M71 0v54h163v1348h-163v54h163h55l934 -1353l6 2v1297h-163v54h217h163v-54h-163v-1402h-54l-934 1356l-6 -2v-1300h163v-54h-381zM71 0zM436 1615q0 80 50 129.5t126 49.5q72 0 153 -62t134 -62q50 0 85.5 39.5t35.5 101.5l55 -10q0 -82 -51 -134t-125 -52 q-76 0 -154 62.5t-133 62.5q-52 0 -86.5 -37t-34.5 -98z" />
<glyph unicode="&#xd2;" horiz-adv-x="1488" d="M130 0zM130 719v18q0 335 168 537.5t440 202.5q271 0 440.5 -202.5t169.5 -537.5v-18q0 -336 -168.5 -538t-439.5 -202q-272 0 -441 202.5t-169 537.5zM185 719q0 -311 151 -498.5t404 -187.5t403.5 187.5t150.5 498.5v20q0 309 -151.5 496.5t-404.5 187.5 q-252 0 -402.5 -187.5t-150.5 -496.5v-20zM476 1856l2 5h89l220 -261l-2 -5h-75z" />
<glyph unicode="&#xd3;" horiz-adv-x="1488" d="M130 0zM130 719v18q0 335 168 537.5t440 202.5q271 0 440.5 -202.5t169.5 -537.5v-18q0 -336 -168.5 -538t-439.5 -202q-272 0 -441 202.5t-169 537.5zM185 719q0 -311 151 -498.5t404 -187.5t403.5 187.5t150.5 498.5v20q0 309 -151.5 496.5t-404.5 187.5 q-252 0 -402.5 -187.5t-150.5 -496.5v-20zM672 1573l220 261h78l2 -5l-231 -261h-67z" />
<glyph unicode="&#xd4;" horiz-adv-x="1488" d="M130 0zM130 719v18q0 335 168 537.5t440 202.5q271 0 440.5 -202.5t169.5 -537.5v-18q0 -336 -168.5 -538t-439.5 -202q-272 0 -441 202.5t-169 537.5zM185 719q0 -311 151 -498.5t404 -187.5t403.5 187.5t150.5 498.5v20q0 309 -151.5 496.5t-404.5 187.5 q-252 0 -402.5 -187.5t-150.5 -496.5v-20zM489 1622v17l210 206h80l214 -210v-13h-70l-185 186l-183 -186h-66z" />
<glyph unicode="&#xd5;" horiz-adv-x="1488" d="M130 0zM130 719v18q0 335 168 537.5t440 202.5q271 0 440.5 -202.5t169.5 -537.5v-18q0 -336 -168.5 -538t-439.5 -202q-272 0 -441 202.5t-169 537.5zM185 719q0 -311 151 -498.5t404 -187.5t403.5 187.5t150.5 498.5v20q0 309 -151.5 496.5t-404.5 187.5 q-252 0 -402.5 -187.5t-150.5 -496.5v-20zM447 1636q0 80 50 129.5t126 49.5q72 0 153 -62t134 -62q50 0 85.5 39.5t35.5 101.5l55 -10q0 -82 -51 -134t-125 -52q-76 0 -154 62.5t-133 62.5q-52 0 -86.5 -37t-34.5 -98z" />
<glyph unicode="&#xd6;" horiz-adv-x="1488" d="M130 0zM130 719v18q0 335 168 537.5t440 202.5q271 0 440.5 -202.5t169.5 -537.5v-18q0 -336 -168.5 -538t-439.5 -202q-272 0 -441 202.5t-169 537.5zM185 719q0 -311 151 -498.5t404 -187.5t403.5 187.5t150.5 498.5v20q0 309 -151.5 496.5t-404.5 187.5 q-252 0 -402.5 -187.5t-150.5 -496.5v-20zM439 1694v118h137v-118h-137zM909 1694v118h136v-118h-136z" />
<glyph unicode="&#xd8;" horiz-adv-x="1411" d="M120 719v18q0 335 168 537.5t440 202.5q104 0 197 -33t168 -94l92 145h66l-116 -183q96 -99 149.5 -246t53.5 -329v-18q0 -336 -168.5 -538t-439.5 -202q-105 0 -197 31.5t-166 93.5l-113 -179h-66l137 217q-99 98 -152 245t-53 332zM175 719q0 -169 46 -303.5 t132 -220.5l6 -1l705 1111q-68 57 -153 87.5t-183 30.5q-252 0 -402.5 -187.5t-150.5 -496.5v-20zM396 149q68 -57 152 -86.5t182 -29.5q253 0 403.5 187.5t150.5 498.5v20q0 166 -46 300t-130 220l-6 1z" />
<glyph unicode="&#xd9;" horiz-adv-x="1441" d="M60 0zM60 1402v54h163h54h163v-54h-163v-933q0 -205 124 -320.5t320 -115.5q195 0 319 115.5t124 320.5v933h-163v54h217h163v-54h-163v-933q0 -238 -138 -364t-359 -126q-223 0 -360.5 126.5t-137.5 363.5v933h-163zM466 1823l2 5h89l220 -261l-2 -5h-75z" />
<glyph unicode="&#xda;" horiz-adv-x="1441" d="M60 0zM60 1402v54h163h54h163v-54h-163v-933q0 -205 124 -320.5t320 -115.5q195 0 319 115.5t124 320.5v933h-163v54h217h163v-54h-163v-933q0 -238 -138 -364t-359 -126q-223 0 -360.5 126.5t-137.5 363.5v933h-163zM662 1540l220 261h78l2 -5l-231 -261h-67z" />
<glyph unicode="&#xdb;" horiz-adv-x="1441" d="M60 0zM60 1402v54h163h54h163v-54h-163v-933q0 -205 124 -320.5t320 -115.5q195 0 319 115.5t124 320.5v933h-163v54h217h163v-54h-163v-933q0 -238 -138 -364t-359 -126q-223 0 -360.5 126.5t-137.5 363.5v933h-163zM479 1589v17l210 206h80l214 -210v-13h-70l-185 186 l-183 -186h-66z" />
<glyph unicode="&#xdc;" horiz-adv-x="1441" d="M60 0zM60 1402v54h163h54h163v-54h-163v-933q0 -205 124 -320.5t320 -115.5q195 0 319 115.5t124 320.5v933h-163v54h217h163v-54h-163v-933q0 -238 -138 -364t-359 -126q-223 0 -360.5 126.5t-137.5 363.5v933h-163zM429 1661v118h137v-118h-137zM899 1661v118h136v-118 h-136z" />
<glyph unicode="&#xdd;" horiz-adv-x="1429" d="M55 0zM55 1402v54h316v-54h-131l449 -755l26 -50l27 50l451 755h-131v54h316v-54h-120l-514 -849v-499h163v-54h-381v54h163v499l-515 849h-119zM658 1541l220 261h78l2 -5l-231 -261h-67z" />
<glyph unicode="&#xde;" horiz-adv-x="1240" d="M70 0v54h163v1348h-163v54h217h163v-54h-163v-259h371q212 0 331 -113t119 -292q0 -180 -119 -292t-331 -112h-371v-280h163v-54h-380zM287 388h371q195 0 295.5 104t100.5 244q0 144 -100 248.5t-296 104.5h-371v-701z" />
<glyph unicode="&#xdf;" horiz-adv-x="1243" d="M55 0v54h163v1028q0 188 89 290t250 102q123 0 207.5 -73t84.5 -195q0 -101 -59.5 -204.5t-59.5 -201.5q0 -90 193 -231.5t193 -291.5q0 -141 -114 -219.5t-253 -78.5q-87 0 -179.5 26t-132.5 63l25 49q42 -34 122.5 -59.5t156.5 -25.5q140 0 230.5 71.5t90.5 182.5 q0 113 -193 252t-193 264q0 105 56.5 212t56.5 194q0 90 -67.5 151t-154.5 61q-134 0 -214.5 -87.5t-80.5 -250.5v-1082h-217z" />
<glyph unicode="&#xe0;" horiz-adv-x="1132" d="M104 0zM104 274q0 146 133 238t357 92h269v158q0 135 -86.5 210.5t-243.5 75.5q-103 0 -192.5 -29t-152.5 -80l-1 -173h-54l1 206q77 57 181.5 93.5t217.5 36.5q174 0 279 -88t105 -254v-542q0 -42 3.5 -83t11.5 -81h130v-54h-177q-13 71 -17.5 106.5t-4.5 76.5v16 q-62 -97 -173.5 -158.5t-262.5 -61.5q-150 0 -236.5 81.5t-86.5 213.5zM158 270q0 -101 74 -169.5t195 -68.5q153 0 266 69t170 191v257h-266q-199 0 -319 -77.5t-120 -201.5zM273 1515l2 5h89l220 -261l-2 -5h-75z" />
<glyph unicode="&#xe1;" horiz-adv-x="1132" d="M104 0zM104 274q0 146 133 238t357 92h269v158q0 135 -86.5 210.5t-243.5 75.5q-103 0 -192.5 -29t-152.5 -80l-1 -173h-54l1 206q77 57 181.5 93.5t217.5 36.5q174 0 279 -88t105 -254v-542q0 -42 3.5 -83t11.5 -81h130v-54h-177q-13 71 -17.5 106.5t-4.5 76.5v16 q-62 -97 -173.5 -158.5t-262.5 -61.5q-150 0 -236.5 81.5t-86.5 213.5zM158 270q0 -101 74 -169.5t195 -68.5q153 0 266 69t170 191v257h-266q-199 0 -319 -77.5t-120 -201.5zM469 1232l220 261h78l2 -5l-231 -261h-67z" />
<glyph unicode="&#xe2;" horiz-adv-x="1132" d="M104 0zM104 274q0 146 133 238t357 92h269v158q0 135 -86.5 210.5t-243.5 75.5q-103 0 -192.5 -29t-152.5 -80l-1 -173h-54l1 206q77 57 181.5 93.5t217.5 36.5q174 0 279 -88t105 -254v-542q0 -42 3.5 -83t11.5 -81h130v-54h-177q-13 71 -17.5 106.5t-4.5 76.5v16 q-62 -97 -173.5 -158.5t-262.5 -61.5q-150 0 -236.5 81.5t-86.5 213.5zM158 270q0 -101 74 -169.5t195 -68.5q153 0 266 69t170 191v257h-266q-199 0 -319 -77.5t-120 -201.5zM286 1281v17l210 206h80l214 -210v-13h-70l-185 186l-183 -186h-66z" />
<glyph unicode="&#xe3;" horiz-adv-x="1132" d="M104 0zM104 274q0 146 133 238t357 92h269v158q0 135 -86.5 210.5t-243.5 75.5q-103 0 -192.5 -29t-152.5 -80l-1 -173h-54l1 206q77 57 181.5 93.5t217.5 36.5q174 0 279 -88t105 -254v-542q0 -42 3.5 -83t11.5 -81h130v-54h-177q-13 71 -17.5 106.5t-4.5 76.5v16 q-62 -97 -173.5 -158.5t-262.5 -61.5q-150 0 -236.5 81.5t-86.5 213.5zM158 270q0 -101 74 -169.5t195 -68.5q153 0 266 69t170 191v257h-266q-199 0 -319 -77.5t-120 -201.5zM244 1295q0 80 50 129.5t126 49.5q72 0 153 -62t134 -62q50 0 85.5 39.5t35.5 101.5l55 -10 q0 -82 -51 -134t-125 -52q-76 0 -154 62.5t-133 62.5q-52 0 -86.5 -37t-34.5 -98z" />
<glyph unicode="&#xe4;" horiz-adv-x="1132" d="M104 0zM104 274q0 146 133 238t357 92h269v158q0 135 -86.5 210.5t-243.5 75.5q-103 0 -192.5 -29t-152.5 -80l-1 -173h-54l1 206q77 57 181.5 93.5t217.5 36.5q174 0 279 -88t105 -254v-542q0 -42 3.5 -83t11.5 -81h130v-54h-177q-13 71 -17.5 106.5t-4.5 76.5v16 q-62 -97 -173.5 -158.5t-262.5 -61.5q-150 0 -236.5 81.5t-86.5 213.5zM158 270q0 -101 74 -169.5t195 -68.5q153 0 266 69t170 191v257h-266q-199 0 -319 -77.5t-120 -201.5zM236 1353v118h137v-118h-137zM706 1353v118h136v-118h-136z" />
<glyph unicode="&#xe5;" horiz-adv-x="1132" d="M104 0zM104 274q0 146 133 238t357 92h269v158q0 135 -86.5 210.5t-243.5 75.5q-103 0 -192.5 -29t-152.5 -80l-1 -173h-54l1 206q77 57 181.5 93.5t217.5 36.5q174 0 279 -88t105 -254v-542q0 -42 3.5 -83t11.5 -81h130v-54h-177q-13 71 -17.5 106.5t-4.5 76.5v16 q-62 -97 -173.5 -158.5t-262.5 -61.5q-150 0 -236.5 81.5t-86.5 213.5zM158 270q0 -101 74 -169.5t195 -68.5q153 0 266 69t170 191v257h-266q-199 0 -319 -77.5t-120 -201.5zM398 1427q0 56 40 97.5t96 41.5q54 0 93.5 -41t39.5 -98t-39 -96t-94 -39q-56 0 -96 39t-40 96z M455 1427q0 -34 23 -56.5t56 -22.5q32 0 54 22t22 57t-22 58.5t-54 23.5q-33 0 -56 -23.5t-23 -58.5z" />
<glyph unicode="&#xe6;" horiz-adv-x="1779" d="M97 284q0 157 111.5 251.5t318.5 94.5h290v90q0 158 -73 243t-219 85q-162 0 -254.5 -78t-92.5 -199l-45 6l-2 6q-5 138 103.5 228.5t290.5 90.5q138 0 227 -73.5t112 -214.5q53 133 157 210.5t236 77.5q188 0 296 -118.5t108 -323.5v-83h-787v-13v-64q0 -208 99 -337.5 t299 -129.5q102 0 186.5 34.5t145.5 96.5l30 -42q-65 -66 -148.5 -104.5t-213.5 -38.5q-143 0 -245 66t-155 185v-12h1q-44 -95 -153 -167t-268 -72q-169 0 -262 82t-93 223zM152 280q0 -117 77.5 -183t221.5 -66q130 0 237 65.5t129 128.5v350h-288q-185 0 -281 -84 t-96 -211zM882 637l2 -5h723v32q0 168 -91.5 276t-258.5 108q-159 0 -260.5 -116.5t-114.5 -294.5z" />
<glyph unicode="&#xe7;" horiz-adv-x="1086" d="M104 0zM104 520v42q0 242 117 391t323 149q122 0 226 -50.5t167 -136.5v-232h-54v212q-57 70 -143.5 111.5t-195.5 41.5q-190 0 -288 -136t-98 -350v-42q0 -216 98 -351.5t290 -135.5q137 0 242 75t105 225h46l2 -6q4 -159 -116.5 -253.5t-278.5 -94.5q-207 0 -324.5 149 t-117.5 392zM471 -395q104 0 180.5 36t76.5 105q0 64 -45.5 89t-163.5 35l25 121h53l-11 -76q91 -7 144 -45.5t53 -123.5q0 -87 -79 -138.5t-226 -51.5z" />
<glyph unicode="&#xe8;" d="M112 0zM112 500v64q0 233 130 385.5t321 152.5q183 0 298.5 -120t115.5 -322v-83h-811v-13v-64q0 -196 115 -331.5t285 -135.5q121 0 202.5 33t139.5 99l29 -42q-64 -71 -155.5 -107.5t-215.5 -36.5q-185 0 -319.5 149.5t-134.5 371.5zM174 637l3 -6h746v33 q0 165 -100 274.5t-260 109.5q-161 0 -268 -117.5t-121 -293.5zM306 1514l2 5h89l220 -261l-2 -5h-75z" />
<glyph unicode="&#xe9;" d="M112 0zM112 500v64q0 233 130 385.5t321 152.5q183 0 298.5 -120t115.5 -322v-83h-811v-13v-64q0 -196 115 -331.5t285 -135.5q121 0 202.5 33t139.5 99l29 -42q-64 -71 -155.5 -107.5t-215.5 -36.5q-185 0 -319.5 149.5t-134.5 371.5zM174 637l3 -6h746v33 q0 165 -100 274.5t-260 109.5q-161 0 -268 -117.5t-121 -293.5zM502 1231l220 261h78l2 -5l-231 -261h-67z" />
<glyph unicode="&#xea;" d="M112 0zM112 500v64q0 233 130 385.5t321 152.5q183 0 298.5 -120t115.5 -322v-83h-811v-13v-64q0 -196 115 -331.5t285 -135.5q121 0 202.5 33t139.5 99l29 -42q-64 -71 -155.5 -107.5t-215.5 -36.5q-185 0 -319.5 149.5t-134.5 371.5zM174 637l3 -6h746v33 q0 165 -100 274.5t-260 109.5q-161 0 -268 -117.5t-121 -293.5zM319 1280v17l210 206h80l214 -210v-13h-70l-185 186l-183 -186h-66z" />
<glyph unicode="&#xeb;" d="M112 0zM112 500v64q0 233 130 385.5t321 152.5q183 0 298.5 -120t115.5 -322v-83h-811v-13v-64q0 -196 115 -331.5t285 -135.5q121 0 202.5 33t139.5 99l29 -42q-64 -71 -155.5 -107.5t-215.5 -36.5q-185 0 -319.5 149.5t-134.5 371.5zM174 637l3 -6h746v33 q0 165 -100 274.5t-260 109.5q-161 0 -268 -117.5t-121 -293.5zM269 1352v118h137v-118h-137zM739 1352v118h136v-118h-136z" />
<glyph unicode="&#xec;" horiz-adv-x="608" d="M24 0zM24 1492l2 5h89l220 -261l-2 -5h-75zM90 0v54h163v974h-163v54h217v-1028h163v-54h-380z" />
<glyph unicode="&#xed;" horiz-adv-x="608" d="M90 0v54h163v974h-163v54h217v-1028h163v-54h-380zM90 0zM219 1210l220 261h78l2 -5l-231 -261h-67z" />
<glyph unicode="&#xee;" horiz-adv-x="608" d="M37 0zM37 1258v17l210 206h80l214 -210v-13h-70l-185 186l-183 -186h-66zM90 0v54h163v974h-163v54h217v-1028h163v-54h-380z" />
<glyph unicode="&#xef;" horiz-adv-x="608" d="M-13 1331v118h137v-118h-137zM0 0zM90 0v54h163v974h-163v54h217v-1028h163v-54h-380zM457 1331v118h136v-118h-136z" />
<glyph unicode="&#xf0;" horiz-adv-x="1170" d="M78 446q0 241 123.5 374t344.5 133q125 0 226.5 -46.5t153.5 -127.5l5 4q-16 163 -73 286t-148 213l-338 -193l-28 48l323 185q-50 41 -108 76.5t-126 68.5l20 50q77 -37 143 -78t121 -88l280 160l29 -48l-266 -152q120 -122 178 -290.5t58 -405.5v-80 q0 -245 -131.5 -400.5t-330.5 -155.5t-327.5 134.5t-128.5 332.5zM133 446q0 -164 109.5 -286.5t295.5 -122.5q179 0 291.5 139.5t112.5 358.5v82q0 10 -0.5 29.5t-0.5 29.5q-40 92 -138.5 155.5t-256.5 63.5q-208 0 -310.5 -124.5t-102.5 -324.5z" />
<glyph unicode="&#xf1;" horiz-adv-x="1320" d="M89 0v54h163v974h-163v54h209l7 -223q49 116 143 179.5t232 63.5q177 0 265.5 -111.5t88.5 -353.5v-583h163v-54h-380v54h163v585q0 225 -80.5 317t-218.5 92q-175 0 -264 -104.5t-111 -267.5v-622h163v-54h-380zM89 0zM347 1293q0 80 50 129.5t126 49.5q72 0 153 -62 t134 -62q50 0 85.5 39.5t35.5 101.5l55 -10q0 -82 -51 -134t-125 -52q-76 0 -154 62.5t-133 62.5q-52 0 -86.5 -37t-34.5 -98z" />
<glyph unicode="&#xf2;" horiz-adv-x="1155" d="M104 0zM104 520v42q0 238 131.5 389t341.5 151q211 0 342.5 -151t131.5 -389v-42q0 -239 -131.5 -390t-340.5 -151q-211 0 -343 151t-132 390zM158 520q0 -204 114 -345.5t307 -141.5q190 0 304 142t114 345v42q0 199 -115 342.5t-305 143.5q-191 0 -305 -143.5 t-114 -342.5v-42zM321 1513l2 5h89l220 -261l-2 -5h-75z" />
<glyph unicode="&#xf3;" horiz-adv-x="1155" d="M104 0zM104 520v42q0 238 131.5 389t341.5 151q211 0 342.5 -151t131.5 -389v-42q0 -239 -131.5 -390t-340.5 -151q-211 0 -343 151t-132 390zM158 520q0 -204 114 -345.5t307 -141.5q190 0 304 142t114 345v42q0 199 -115 342.5t-305 143.5q-191 0 -305 -143.5 t-114 -342.5v-42zM517 1230l220 261h78l2 -5l-231 -261h-67z" />
<glyph unicode="&#xf4;" horiz-adv-x="1155" d="M104 0zM104 520v42q0 238 131.5 389t341.5 151q211 0 342.5 -151t131.5 -389v-42q0 -239 -131.5 -390t-340.5 -151q-211 0 -343 151t-132 390zM158 520q0 -204 114 -345.5t307 -141.5q190 0 304 142t114 345v42q0 199 -115 342.5t-305 143.5q-191 0 -305 -143.5 t-114 -342.5v-42zM334 1279v17l210 206h80l214 -210v-13h-70l-185 186l-183 -186h-66z" />
<glyph unicode="&#xf5;" horiz-adv-x="1155" d="M104 0zM104 520v42q0 238 131.5 389t341.5 151q211 0 342.5 -151t131.5 -389v-42q0 -239 -131.5 -390t-340.5 -151q-211 0 -343 151t-132 390zM158 520q0 -204 114 -345.5t307 -141.5q190 0 304 142t114 345v42q0 199 -115 342.5t-305 143.5q-191 0 -305 -143.5 t-114 -342.5v-42zM292 1293q0 80 50 129.5t126 49.5q72 0 153 -62t134 -62q50 0 85.5 39.5t35.5 101.5l55 -10q0 -82 -51 -134t-125 -52q-76 0 -154 62.5t-133 62.5q-52 0 -86.5 -37t-34.5 -98z" />
<glyph unicode="&#xf6;" horiz-adv-x="1155" d="M104 0zM104 520v42q0 238 131.5 389t341.5 151q211 0 342.5 -151t131.5 -389v-42q0 -239 -131.5 -390t-340.5 -151q-211 0 -343 151t-132 390zM158 520q0 -204 114 -345.5t307 -141.5q190 0 304 142t114 345v42q0 199 -115 342.5t-305 143.5q-191 0 -305 -143.5 t-114 -342.5v-42zM284 1351v118h137v-118h-137zM754 1351v118h136v-118h-136z" />
<glyph unicode="&#xf7;" horiz-adv-x="1148" d="M74 686v52h998v-52h-998zM536 241v122h96v-122h-96zM536 1020v122h96v-122h-96z" />
<glyph unicode="&#xf8;" horiz-adv-x="1155" d="M104 520v42q0 238 131.5 389t341.5 151q69 0 130.5 -17.5t114.5 -50.5l98 185h63l-116 -218q87 -73 135.5 -186t48.5 -253v-42q0 -239 -131.5 -390t-340.5 -151q-62 0 -118.5 14t-105.5 41l-95 -179h-63l111 209q-97 70 -150.5 188.5t-53.5 267.5zM158 520 q0 -126 45 -232.5t128 -167.5h6l458 864q-47 30 -102 47t-116 17q-191 0 -305 -143.5t-114 -342.5v-42zM381 83q42 -25 92 -37.5t106 -12.5q190 0 304 142t114 345v42q0 114 -41 215.5t-113 164.5l-6 1z" />
<glyph unicode="&#xf9;" horiz-adv-x="1222" d="M44 0zM44 1028v54h143h54v-619q0 -220 81 -325t219 -105q169 0 259.5 83t115.5 220v692h-163v54h163h55v-1028h163v-54h-208l-8 194q-51 -103 -145.5 -159t-229.5 -56q-167 0 -261.5 118.5t-94.5 367.5v563h-143zM275 1492l2 5h89l220 -261l-2 -5h-75z" />
<glyph unicode="&#xfa;" horiz-adv-x="1222" d="M44 0zM44 1028v54h143h54v-619q0 -220 81 -325t219 -105q169 0 259.5 83t115.5 220v692h-163v54h163h55v-1028h163v-54h-208l-8 194q-51 -103 -145.5 -159t-229.5 -56q-167 0 -261.5 118.5t-94.5 367.5v563h-143zM471 1210l220 261h78l2 -5l-231 -261h-67z" />
<glyph unicode="&#xfb;" horiz-adv-x="1222" d="M44 0zM44 1028v54h143h54v-619q0 -220 81 -325t219 -105q169 0 259.5 83t115.5 220v692h-163v54h163h55v-1028h163v-54h-208l-8 194q-51 -103 -145.5 -159t-229.5 -56q-167 0 -261.5 118.5t-94.5 367.5v563h-143zM288 1258v17l210 206h80l214 -210v-13h-70l-185 186 l-183 -186h-66z" />
<glyph unicode="&#xfc;" horiz-adv-x="1222" d="M44 0zM44 1028v54h143h54v-619q0 -220 81 -325t219 -105q169 0 259.5 83t115.5 220v692h-163v54h163h55v-1028h163v-54h-208l-8 194q-51 -103 -145.5 -159t-229.5 -56q-167 0 -261.5 118.5t-94.5 367.5v563h-143zM238 1331v118h137v-118h-137zM708 1331v118h136v-118 h-136z" />
<glyph unicode="&#xfd;" horiz-adv-x="1185" d="M55 0zM55 1028v54h319v-54h-142l335 -832l40 -108h6l6 16l353 924h-142v54h320v-54h-118l-460 -1208q-44 -114 -102.5 -185.5t-186.5 -71.5q-19 0 -42 3.5t-34 7.5l9 51q11 -3 33 -6t34 -3q92 0 143.5 54t91.5 160l65 176l-410 1022h-118zM544 1210l220 261h78l2 -5 l-231 -261h-67z" />
<glyph unicode="&#xfe;" horiz-adv-x="1121" d="M65 -362h163v1868h-163v54h217v-671q54 99 147 156t220 57q191 0 299.5 -151.5t108.5 -408.5v-21q0 -250 -108 -396t-298 -146q-127 0 -221.5 51t-147.5 138v-530h163v-54h-380v54zM282 269q40 -108 134 -172t236 -64q171 0 260.5 132t89.5 356v21q0 225 -90.5 365.5 t-261.5 140.5q-157 0 -244 -79t-124 -194v-506z" />
<glyph unicode="&#xff;" horiz-adv-x="1185" d="M55 0zM55 1028v54h319v-54h-142l335 -832l40 -108h6l6 16l353 924h-142v54h320v-54h-118l-460 -1208q-44 -114 -102.5 -185.5t-186.5 -71.5q-19 0 -42 3.5t-34 7.5l9 51q11 -3 33 -6t34 -3q92 0 143.5 54t91.5 160l65 176l-410 1022h-118zM311 1331v118h137v-118h-137z M781 1331v118h136v-118h-136z" />
<glyph unicode="&#x131;" horiz-adv-x="608" d="M90 0v54h163v974h-163v54h217v-1028h163v-54h-380z" />
<glyph unicode="&#x152;" horiz-adv-x="1973" d="M114 576v304q0 265 143 431t374 166q80 0 161.5 -6t170.5 -15h872v-293h-54v239h-778v-616h630v-54h-630v-678h778v239h54v-293h-872q-103 -10 -178 -15.5t-152 -5.5q-231 0 -375 166t-144 431zM168 576q0 -240 127.5 -391.5t337.5 -151.5q37 0 76 0.5t77 2.5v18h163 v1348h-163v18q-38 1 -77 2t-78 1q-211 0 -337 -149t-126 -392v-306z" />
<glyph unicode="&#x153;" horiz-adv-x="1932" d="M104 520v42q0 238 131.5 389t341.5 151q165 0 284.5 -96t165.5 -259q45 161 161 258t265 97q183 0 298.5 -120t115.5 -322v-83h-811v-13v-64q0 -196 115 -331.5t285 -135.5q121 0 202.5 33t139.5 99l29 -42q-64 -71 -155.5 -107.5t-215.5 -36.5q-146 0 -265 97t-165 255 q-47 -163 -165.5 -257.5t-281.5 -94.5q-211 0 -343 151t-132 390zM158 520q0 -204 114 -345.5t307 -141.5q190 0 304 142t114 345v42q0 199 -115 342.5t-305 143.5q-191 0 -305 -143.5t-114 -342.5v-42zM1064 637l3 -6h746v33q0 165 -100 274.5t-260 109.5 q-161 0 -268 -117.5t-121 -293.5z" />
<glyph unicode="&#x178;" horiz-adv-x="1429" d="M55 0zM55 1402v54h316v-54h-131l449 -755l26 -50l27 50l451 755h-131v54h316v-54h-120l-514 -849v-499h163v-54h-381v54h163v499l-515 849h-119zM425 1662v118h137v-118h-137zM895 1662v118h136v-118h-136z" />
<glyph unicode="&#x192;" horiz-adv-x="780" d="M-3 -417l13 52q18 -6 45.5 -12t53.5 -6q110 0 170.5 76.5t60.5 217.5v1116h-188v55h188v178q0 153 74.5 237t208.5 84q33 0 65.5 -4t62.5 -13l-8 -52q-32 8 -56.5 11.5t-62.5 3.5q-108 0 -169 -71t-61 -196v-178h286v-55h-286v-1116q0 -167 -75 -257.5t-210 -90.5 q-30 0 -56 5t-56 15z" />
<glyph unicode="&#x2c6;" horiz-adv-x="779" d="M104 1252v17l210 206h80l214 -210v-13h-70l-185 186l-183 -186h-66z" />
<glyph unicode="&#x2c7;" horiz-adv-x="754" d="M90 1461v14h71l183 -187l184 187h67v-16l-212 -207h-79z" />
<glyph unicode="&#x2d8;" horiz-adv-x="819" d="M125 1450l2 6h46q0 -86 54 -139t171 -53q112 0 168 54t56 138h46l2 -6q4 -107 -70 -174.5t-202 -67.5q-129 0 -203.5 67.5t-69.5 174.5z" />
<glyph unicode="&#x2d9;" horiz-adv-x="474" d="M152 1318v138h95v-138h-95z" />
<glyph unicode="&#x2da;" horiz-adv-x="623" d="M138 1338q0 56 40 97.5t96 41.5q54 0 93.5 -41t39.5 -98t-39 -96t-94 -39q-56 0 -96 39t-40 96zM195 1338q0 -34 23 -56.5t56 -22.5q32 0 54 22t22 57t-22 58.5t-54 23.5q-33 0 -56 -23.5t-23 -58.5z" />
<glyph unicode="&#x2db;" horiz-adv-x="413" d="M54 -223q0 61 42 123.5t108 119.5l52 -20q-76 -69 -112 -116.5t-36 -106.5q0 -23 16 -51.5t68 -28.5q35 0 60 10.5t50 27.5l16 -48q-24 -18 -54.5 -31t-71.5 -13q-61 0 -99.5 35.5t-38.5 98.5z" />
<glyph unicode="&#x2dc;" horiz-adv-x="923" d="M127 1286q0 80 50 129.5t126 49.5q72 0 153 -62t134 -62q50 0 85.5 39.5t35.5 101.5l55 -10q0 -82 -51 -134t-125 -52q-76 0 -154 62.5t-133 62.5q-52 0 -86.5 -37t-34.5 -98z" />
<glyph unicode="&#x2dd;" horiz-adv-x="866" d="M109 1257l241 261h68l3 -6l-248 -260h-62zM335 1258l285 260h72l2 -6l-292 -260h-65z" />
<glyph unicode="&#x3c0;" horiz-adv-x="1266" d="M75 1027v55h1028v-55h-198v-748q0 -135 48 -190.5t137 -55.5q27 0 48 2t59 7l9 -50q-24 -7 -52.5 -10t-60.5 -3q-126 0 -184.5 69.5t-58.5 230.5v748h-556v-1027h-54v1027h-165z" />
<glyph unicode="&#x400;" horiz-adv-x="1270" d="M71 0v54h163v1348h-163v54h1049v-293h-54v239h-778v-616h630v-54h-630v-678h778v239h54v-293h-1049zM71 0zM358 1835l2 5h89l220 -261l-2 -5h-75z" />
<glyph unicode="&#x401;" horiz-adv-x="1270" d="M71 0v54h163v1348h-163v54h1049v-293h-54v239h-778v-616h630v-54h-630v-678h778v239h54v-293h-1049zM71 0zM321 1673v118h137v-118h-137zM791 1673v118h136v-118h-136z" />
<glyph unicode="&#x402;" horiz-adv-x="1545" d="M84 1163v293h1114v-293h-54v239h-556v-615q100 41 195.5 67t175.5 26q220 0 350 -111t130 -354q0 -158 -116.5 -291t-338.5 -130l-5 2v44q190 0 298 112t108 263q0 210 -117 311t-309 101q-87 0 -169.5 -24t-201.5 -69v-680h163v-54h-380v54h163v1348h-396v-239h-54z" />
<glyph unicode="&#x403;" horiz-adv-x="1203" d="M77 0v54h163v1348h-163v54h1025v-293h-54v239h-754v-1348h163v-54h-380zM77 0zM545 1552l220 261h78l2 -5l-231 -261h-67z" />
<glyph unicode="&#x404;" horiz-adv-x="1266" d="M118 720v18q0 330 176 535t461 205q158 0 286.5 -62t202.5 -169v-254h-55v234q-67 90 -179 143.5t-255 53.5q-253 0 -414 -180.5t-164 -472.5l2 -5h633v-54h-633l-2 -5q-2 -301 158 -487t410 -186q144 0 261 53.5t183 143.5v234h55v-254q-73 -107 -206 -169t-293 -62 q-277 0 -452 205.5t-175 534.5z" />
<glyph unicode="&#x405;" horiz-adv-x="1198" d="M100 204v240h54v-217q78 -102 199 -148t251 -46q192 0 315.5 88t123.5 228q0 137 -100.5 219t-348.5 150q-249 67 -364.5 152.5t-115.5 249.5q0 163 136 260t347 97q164 0 286.5 -56.5t193.5 -169.5v-229h-54v204q-64 97 -171.5 147t-254.5 50q-198 0 -313.5 -88.5 t-115.5 -212.5t95.5 -206t345.5 -146q242 -64 365.5 -156.5t123.5 -262.5q0 -173 -141 -272.5t-353 -99.5q-146 0 -280.5 54.5t-223.5 170.5z" />
<glyph unicode="&#x406;" horiz-adv-x="598" d="M109 0v54h163v1348h-163v54h380v-54h-163v-1348h163v-54h-380zM109 0z" />
<glyph unicode="&#x407;" horiz-adv-x="598" d="M10 0zM10 1673v118h137v-118h-137zM109 0v54h163v1348h-163v54h380v-54h-163v-1348h163v-54h-380zM480 1673v118h136v-118h-136z" />
<glyph unicode="&#x408;" horiz-adv-x="1137" d="M41 0zM46 395l2 6h46q0 -178 97 -273t280 -95q153 0 254 105t101 284v980h-163v54h380v-54h-163v-980q0 -203 -114.5 -323t-294.5 -120q-200 0 -315 106t-110 310z" />
<glyph unicode="&#x409;" horiz-adv-x="2187" d="M60 0v54h35q198 0 278.5 153t110.5 615l38 580h-159v54h1039v-54h-163v-594h369q227 0 349.5 -112t122.5 -292q0 -181 -123 -292.5t-349 -111.5h-423v1402h-609l-38 -580q-31 -472 -117 -647t-329 -175h-32zM1239 54h369q208 0 313 100.5t105 251.5q0 145 -105.5 246.5 t-312.5 101.5h-369v-700z" />
<glyph unicode="&#x40a;" horiz-adv-x="2233" d="M77 0v54h163v1348h-163v54h380v-54h-163v-654h930v654h-163v54h163h54h163v-54h-163v-592h369q227 0 349.5 -112t122.5 -293t-123 -293t-349 -112h-586v54h163v640h-930v-640h163v-54h-380zM1278 53h369q208 0 313 101t105 253q0 145 -105.5 247t-312.5 102h-369v-703z " />
<glyph unicode="&#x40b;" horiz-adv-x="1722" d="M81 1163v293h1114v-293h-54v239h-536v-647q105 29 207.5 46t201.5 17q238 0 358.5 -105t120.5 -342v-317h163v-54h-380v54h163v317q0 205 -107 299t-318 94q-101 0 -202.5 -16.5t-206.5 -46.5v-647h163v-54h-380v54h163v1348h-416v-239h-54z" />
<glyph unicode="&#x40c;" horiz-adv-x="1388" d="M71 0v54h163v1348h-163v54h380v-54h-163v-638h238l565 633l-2 5h-168v54h361v-54h-115l-596 -672l639 -676h118v-54h-361v54h163l3 6l-622 651h-223v-657h163v-54h-380zM71 0zM573 1499l220 261h78l2 -5l-231 -261h-67z" />
<glyph unicode="&#x40d;" horiz-adv-x="1552" d="M77 0v54h163v1348h-163v54h163h54h163v-54h-163v-1122l6 -2l935 987v137h-163v54h163h54h163v-54h-163v-1348h163v-54h-380v54h163v1126l-6 2l-935 -988v-140h163v-54h-380zM77 0zM475 1835l2 5h89l220 -261l-2 -5h-75z" />
<glyph unicode="&#x40e;" horiz-adv-x="1431" d="M33 0zM33 1402v54h317v-54h-132l483 -845l55 -100l20 39l449 906h-136v54h316v-54h-114l-572 -1145q-62 -120 -137 -199t-216 -79q-21 0 -48 4t-39 9l15 51q13 -5 34.5 -7.5t42.5 -2.5q100 0 167 61.5t122 171.5l64 128l-573 1008h-118zM466 1798l2 6h46q0 -86 54 -139 t171 -53q112 0 168 54t56 138h46l2 -6q4 -107 -70 -174.5t-202 -67.5q-129 0 -203.5 67.5t-69.5 174.5z" />
<glyph unicode="&#x40f;" horiz-adv-x="1547" d="M77 0v54h163v1348h-163v54h217h163v-54h-163v-1348h930v1348h-163v54h380v-54h-163v-1348h163v-54h-651v-349h-54v349h-659z" />
<glyph unicode="&#x410;" horiz-adv-x="1472" d="M55 0v54h107l524 1402h66l525 -1402h107v-54h-309v54h143l-143 381h-712l-142 -381h143v-54h-309zM55 0zM383 489h672l-305 820l-28 82h-6l-27 -82z" />
<glyph unicode="&#x411;" horiz-adv-x="1280" d="M70 0v54h163v1348h-163v54h1025v-293h-54v239h-754v-614h369q227 0 349 -107.5t122 -286.5q0 -180 -122 -287t-349 -107h-586zM287 54h369q209 0 312.5 96t103.5 246q0 144 -104 241t-312 97h-369v-680z" />
<glyph unicode="&#x412;" horiz-adv-x="1303" d="M71 0v54h163v1348h-163v54h163h383q226 0 351 -93t125 -280q0 -130 -67 -219t-189 -111q136 -18 229 -119t93 -233q0 -191 -123.5 -296t-326.5 -105h-638zM71 0zM288 54h421q184 0 290 91t106 254q0 134 -101.5 227t-284.5 93h-431v-665zM288 773h349q199 0 300 77.5 t101 236.5q0 156 -106.5 235.5t-314.5 79.5h-329v-629z" />
<glyph unicode="&#x413;" horiz-adv-x="1203" d="M77 0v54h163v1348h-163v54h1025v-293h-54v239h-754v-1348h163v-54h-380zM77 0z" />
<glyph unicode="&#x414;" horiz-adv-x="1523" d="M55 54h76q85 80 182 306.5t121 630.5l18 411h-160v54h1066v-54h-163v-1348h120v-403h-55v349h-1151v-349h-54v403zM200 54h941v1348h-635l-18 -411q-20 -333 -105 -581t-183 -356z" />
<glyph unicode="&#x415;" horiz-adv-x="1270" d="M71 0v54h163v1348h-163v54h1049v-293h-54v239h-778v-616h630v-54h-630v-678h778v239h54v-293h-1049zM71 0z" />
<glyph unicode="&#x416;" horiz-adv-x="2020" d="M55 1441q18 12 41.5 19t44.5 7q60 0 109.5 -27.5t118.5 -116.5l422 -550h181v629h-163v54h163h54h163v-54h-163v-629h184l422 550q68 89 117.5 116.5t110.5 27.5q20 0 43.5 -7t42.5 -19l-24 -46q-13 8 -28.5 13t-33.5 5q-53 0 -90.5 -23t-97.5 -102l-420 -548l551 -686 h131v-54h-322v54h112l3 5l-530 661h-171v-666h163v-54h-380v54h163v666h-173l-530 -661l3 -5h113v-54h-322v54h130l553 689l-417 545q-61 79 -98.5 102t-89.5 23q-19 0 -34.5 -5t-27.5 -13z" />
<glyph unicode="&#x417;" horiz-adv-x="1211" d="M76 398l2 6h46q0 -163 125 -267t323 -104q219 0 340.5 92.5t121.5 256.5q0 174 -117 253.5t-350 79.5h-184v56h184q228 0 336 82t108 234q0 153 -110 244.5t-329 91.5q-144 0 -256 -53.5t-178 -143.5v-214h-55v234q73 107 201.5 169t287.5 62q229 0 361 -102t132 -292 q0 -118 -75.5 -208.5t-215.5 -129.5q158 -34 236 -124.5t78 -234.5q0 -190 -143.5 -298.5t-372.5 -108.5q-201 0 -351 109t-145 310z" />
<glyph unicode="&#x418;" horiz-adv-x="1552" d="M77 0v54h163v1348h-163v54h163h54h163v-54h-163v-1122l6 -2l935 987v137h-163v54h163h54h163v-54h-163v-1348h163v-54h-380v54h163v1126l-6 2l-935 -988v-140h163v-54h-380z" />
<glyph unicode="&#x419;" horiz-adv-x="1552" d="M77 0v54h163v1348h-163v54h163h54h163v-54h-163v-1122l6 -2l935 987v137h-163v54h163h54h163v-54h-163v-1348h163v-54h-380v54h163v1126l-6 2l-935 -988v-140h163v-54h-380zM77 0zM463 1798l2 6h46q0 -86 54 -139t171 -53q112 0 168 54t56 138h46l2 -6q4 -107 -70 -174.5 t-202 -67.5q-129 0 -203.5 67.5t-69.5 174.5z" />
<glyph unicode="&#x41a;" horiz-adv-x="1378" d="M71 0v54h163v1348h-163v54h380v-54h-163v-639h234l432 560q68 89 117.5 116.5t110.5 27.5q20 0 43.5 -7t42.5 -19l-24 -46q-13 8 -28.5 13t-33.5 5q-53 0 -90.5 -23t-97.5 -102l-427 -554l643 -680h118v-54h-361v54h163l3 6l-621 650h-224v-656h163v-54h-380z" />
<glyph unicode="&#x41b;" horiz-adv-x="1503" d="M57 0v54h35q157 0 221 152.5t88 615.5l38 580h-159v54h1139v-54h-163v-1348h163v-54h-380v54h163v1348h-709l-38 -580q-24 -472 -95 -647t-271 -175h-32z" />
<glyph unicode="&#x41c;" horiz-adv-x="1824" d="M71 0v54h163v1348h-163v54h163h77l596 -1370h6l598 1370h242v-54h-163v-1348h163v-54h-380v54h163v1307l-6 2l-598 -1363h-43l-595 1356l-6 -2v-1300h163v-54h-380zM71 0z" />
<glyph unicode="&#x41d;" horiz-adv-x="1506" d="M71 0v54h163v1348h-163v54h380v-54h-163v-653h930v653h-163v54h163h54h163v-54h-163v-1348h163v-54h-380v54h163v641h-930v-641h163v-54h-380zM71 0z" />
<glyph unicode="&#x41e;" horiz-adv-x="1488" d="M130 0zM130 719v18q0 335 168 537.5t440 202.5q271 0 440.5 -202.5t169.5 -537.5v-18q0 -336 -168.5 -538t-439.5 -202q-272 0 -441 202.5t-169 537.5zM185 719q0 -311 151 -498.5t404 -187.5t403.5 187.5t150.5 498.5v20q0 309 -151.5 496.5t-404.5 187.5 q-252 0 -402.5 -187.5t-150.5 -496.5v-20z" />
<glyph unicode="&#x41f;" horiz-adv-x="1548" d="M77 0v54h163v1348h-163v54h1364v-54h-163v-1348h163v-54h-380v54h163v1348h-930v-1348h163v-54h-380zM77 0z" />
<glyph unicode="&#x420;" horiz-adv-x="1255" d="M71 0v54h163v1348h-163v54h163h405q226 0 348 -113.5t122 -301.5q0 -190 -121.5 -303t-348.5 -113h-351v-571h163v-54h-380zM71 0zM288 679h351q207 0 311.5 103t104.5 257q0 158 -104 260.5t-312 102.5h-351v-723z" />
<glyph unicode="&#x421;" horiz-adv-x="1373" d="M130 0zM130 719v18q0 330 176 535t461 205q158 0 286.5 -62t202.5 -169v-254h-55v234q-67 90 -179 143.5t-255 53.5q-259 0 -421 -189t-162 -495v-20q0 -307 161 -496.5t412 -189.5q144 0 261 53.5t183 143.5v234h55v-254q-73 -107 -206 -169t-293 -62q-277 0 -452 205.5 t-175 534.5z" />
<glyph unicode="&#x422;" horiz-adv-x="1277" d="M80 0zM80 1163v293h1114v-293h-54v239h-476v-1348h163v-54h-380v54h163v1348h-476v-239h-54z" />
<glyph unicode="&#x423;" horiz-adv-x="1431" d="M33 1402v54h317v-54h-132l483 -845l55 -100l20 39l449 906h-136v54h316v-54h-114l-572 -1145q-62 -120 -137 -199t-216 -79q-21 0 -48 4t-39 9l15 51q13 -5 34.5 -7.5t42.5 -2.5q100 0 167 61.5t122 171.5l64 128l-573 1008h-118z" />
<glyph unicode="&#x424;" horiz-adv-x="1462" d="M70 737q0 242 165.5 405.5t441.5 163.5h25v156h-163v54h218h163v-54h-163v-156h28q275 0 441 -163t166 -404q0 -243 -166 -406.5t-441 -163.5h-28v-175h163v-54h-381v54h163v175h-25q-277 0 -442 162.5t-165 405.5zM125 737q0 -225 149.5 -369.5t402.5 -144.5h25v1029 h-25q-252 0 -402 -147t-150 -368zM757 223h30q251 0 400.5 145.5t149.5 370.5q0 222 -150 367.5t-400 145.5h-30v-1029z" />
<glyph unicode="&#x425;" horiz-adv-x="1391" d="M63 0v54h115l486 689l-466 659h-115v54h338v-54h-156l432 -617l433 617h-155v54h337v-54h-115l-465 -659l486 -689h115v-54h-337v54h155l-454 647l-453 -647h155v-54h-336zM63 0z" />
<glyph unicode="&#x426;" horiz-adv-x="1566" d="M77 0v54h163v1348h-163v54h217h163v-54h-163v-1348h930v1348h-163v54h163h54h163v-54h-163v-1348h133v-405h-54v351h-1280z" />
<glyph unicode="&#x427;" horiz-adv-x="1461" d="M59 1402v54h217h163v-54h-163v-297q0 -206 106.5 -299.5t318.5 -93.5q99 0 199 15t203 45v630h-163v54h217h163v-54h-163v-1348h163v-54h-380v54h163v665q-104 -29 -205 -45t-197 -16q-239 0 -359 104.5t-120 342.5v297h-163z" />
<glyph unicode="&#x428;" horiz-adv-x="2000" d="M77 0v54h163v1348h-163v54h218h163v-54h-163v-1348h663v1348h-163v54h381v-54h-163v-1348h663v1348h-163v54h163h54h163v-54h-163v-1348h163v-54h-1816z" />
<glyph unicode="&#x429;" horiz-adv-x="2007" d="M77 0v54h163v1348h-163v54h163h55h163v-54h-163v-1348h663v1348h-163v54h218h163v-54h-163v-1348h663v1348h-163v54h163h217v-54h-163v-1348h166v-405h-54v351h-1765z" />
<glyph unicode="&#x42a;" horiz-adv-x="1594" d="M77 1163v293h751v-54h-163v-614h369q227 0 349 -107.5t122 -286.5q0 -180 -122 -287t-349 -107h-586v54h163v1348h-480v-239h-54zM665 54h369q209 0 312.5 96t103.5 246q0 144 -104 241t-312 97h-369v-680z" />
<glyph unicode="&#x42b;" horiz-adv-x="1648" d="M70 0v54h163v1348h-163v54h163h54v-668h369q227 0 349 -107.5t122 -286.5q0 -180 -122 -287t-349 -107h-586zM287 54h369q209 0 312.5 96t103.5 246q0 144 -104 241t-312 97h-369v-680zM287 1402v54h163v-54h-163zM1223 0v54h163v1348h-163v54h380v-54h-163v-1348h163 v-54h-380z" />
<glyph unicode="&#x42c;" horiz-adv-x="1289" d="M70 0v54h163v1348h-163v54h163h54v-668h369q227 0 349 -107.5t122 -286.5q0 -180 -122 -287t-349 -107h-586zM287 54h369q209 0 312.5 96t103.5 246q0 144 -104 241t-312 97h-369v-680zM287 1402v54h163v-54h-163z" />
<glyph unicode="&#x42d;" horiz-adv-x="1277" d="M95 210v254h55v-234q65 -90 182 -143.5t262 -53.5q248 0 400.5 188t152.5 498v11h-636v54h628l2 5q-9 286 -160 460t-397 174q-144 0 -256 -53.5t-178 -143.5v-234h-55v254q73 107 201.5 169t287.5 62q282 0 449.5 -204t167.5 -536v-18q0 -332 -166.5 -536t-440.5 -204 q-161 0 -294 62t-205 169z" />
<glyph unicode="&#x42e;" horiz-adv-x="1896" d="M66 0v54h163v1348h-163v54h380v-54h-163v-655h295v-54h-295v-639h163v-54h-380zM604 719v18q0 335 168 537.5t440 202.5q271 0 440.5 -202.5t169.5 -537.5v-18q0 -336 -168.5 -538t-439.5 -202q-272 0 -441 202.5t-169 537.5zM659 719q0 -311 151 -498.5t404 -187.5 t403.5 187.5t150.5 498.5v20q0 309 -151.5 496.5t-404.5 187.5q-252 0 -402.5 -187.5t-150.5 -496.5v-20z" />
<glyph unicode="&#x42f;" horiz-adv-x="1363" d="M49 18l24 46q12 -9 27.5 -13.5t34.5 -4.5q51 0 91 35.5t79 129.5l186 443l-7 10q-142 42 -215.5 134t-73.5 230q0 207 125 317.5t349 110.5h426h163v-54h-163v-1348h163v-54h-218v639h-506l-189 -463q-42 -104 -95.5 -144t-114.5 -40q-21 0 -44.5 6.5t-41.5 19.5z M249 1030q0 -151 91 -241.5t250 -94.5h450v708h-371q-207 0 -313.5 -96t-106.5 -276zM877 0v54h163v-54h-163z" />
<glyph unicode="&#x430;" horiz-adv-x="1132" d="M104 0zM104 274q0 146 133 238t357 92h269v158q0 135 -86.5 210.5t-243.5 75.5q-103 0 -192.5 -29t-152.5 -80l-1 -173h-54l1 206q77 57 181.5 93.5t217.5 36.5q174 0 279 -88t105 -254v-542q0 -42 3.5 -83t11.5 -81h130v-54h-177q-13 71 -17.5 106.5t-4.5 76.5v16 q-62 -97 -173.5 -158.5t-262.5 -61.5q-150 0 -236.5 81.5t-86.5 213.5zM158 270q0 -101 74 -169.5t195 -68.5q153 0 266 69t170 191v257h-266q-199 0 -319 -77.5t-120 -201.5z" />
<glyph unicode="&#x431;" horiz-adv-x="1158" d="M106 480v172q0 308 127.5 499.5t350.5 218.5q176 25 242 68t66 115h44l2 -6q5 -100 -81.5 -156.5t-257.5 -74.5q-178 -17 -291.5 -161t-131.5 -370l3 -5q49 102 155 162t245 60q211 0 343 -134.5t132 -345.5v-42q0 -221 -132 -361t-341 -140q-211 0 -343 140t-132 361z M160 480q0 -187 114 -317t307 -130q190 0 304 130.5t114 316.5v42q0 176 -114.5 301t-305.5 125t-305 -125.5t-114 -300.5v-42z" />
<glyph unicode="&#x432;" horiz-adv-x="1231" d="M97 0v54h163v974h-163v54h163h372q193 0 299.5 -70t106.5 -210q0 -91 -56.5 -158t-157.5 -89h1q111 -12 185.5 -87.5t74.5 -174.5q0 -142 -104.5 -217.5t-279.5 -75.5h-604zM314 54h387q155 0 243 61.5t88 176.5q0 102 -90 165.5t-241 63.5h-387v-467zM314 575h338 q162 0 247 58t85 172t-88.5 168t-263.5 54h-318v-452z" />
<glyph unicode="&#x433;" horiz-adv-x="1030" d="M72 0v54h163v974h-163v54h813v-192h-54v137h-542v-973h163v-54h-380z" />
<glyph unicode="&#x434;" horiz-adv-x="1255" d="M66 54h72q92 124 147.5 251.5t62.5 400.5l17 322h-160v54h744h163v-54h-163v-974h86v-372h-54v318h-871v-318h-44v372zM205 54h690v974h-476l-17 -322q-7 -241 -61.5 -397.5t-135.5 -254.5z" />
<glyph unicode="&#x435;" d="M112 0zM112 500v64q0 233 130 385.5t321 152.5q183 0 298.5 -120t115.5 -322v-83h-811v-13v-64q0 -196 115 -331.5t285 -135.5q121 0 202.5 33t139.5 99l29 -42q-64 -71 -155.5 -107.5t-215.5 -36.5q-185 0 -319.5 149.5t-134.5 371.5zM174 637l3 -6h746v33 q0 165 -100 274.5t-260 109.5q-161 0 -268 -117.5t-121 -293.5z" />
<glyph unicode="&#x436;" horiz-adv-x="1801" d="M75 0v54h137l469 506l-285 354q-63 78 -100 101.5t-88 23.5q-19 0 -34.5 -5t-27.5 -13l-24 46q18 12 41.5 19t44.5 7q58 0 107 -28t121 -116l297 -367h153v446h-163v54h217h163v-54h-163v-446h160l297 367q71 88 120 116t108 28q20 0 43.5 -7t42.5 -19l-24 -46 q-13 8 -28.5 13t-33.5 5q-51 0 -88 -23.5t-100 -101.5l-287 -357l467 -503h137v-54h-158l-500 529h-156v-475h163v-54h-380v54h163v475h-154l-499 -529h-158z" />
<glyph unicode="&#x437;" horiz-adv-x="1030" d="M89 295l2 6h46q0 -114 100.5 -188.5t251.5 -74.5q170 0 259.5 65.5t89.5 183.5q0 124 -87 181t-265 57h-145v55h145q175 0 254 58t79 167t-80.5 174t-249.5 65q-137 0 -235.5 -68t-98.5 -177h-46l-2 6q-6 129 108.5 211t273.5 82q182 0 283.5 -76.5t101.5 -219.5 q0 -85 -54.5 -151t-155.5 -97q115 -27 172 -93.5t57 -170.5q0 -144 -111 -225.5t-293 -81.5q-160 0 -282.5 81.5t-117.5 230.5z" />
<glyph unicode="&#x438;" horiz-adv-x="1352" d="M97 0v54h163v974h-163v54h217h163v-54h-163v-922l6 -2l663 978h55h163v-54h-163v-974h163v-54h-381v54h163v922l-6 2l-663 -978h-217z" />
<glyph unicode="&#x439;" horiz-adv-x="1352" d="M97 0v54h163v974h-163v54h217h163v-54h-163v-922l6 -2l663 978h55h163v-54h-163v-974h163v-54h-381v54h163v922l-6 2l-663 -978h-217zM97 0zM395 1455l2 6h46q0 -86 54 -139t171 -53q112 0 168 54t56 138h46l2 -6q4 -107 -70 -174.5t-202 -67.5q-129 0 -203.5 67.5 t-69.5 174.5z" />
<glyph unicode="&#x43a;" horiz-adv-x="1230" d="M97 0v54h163v974h-163v54h381v-54h-163v-446h208l297 367q71 88 120 116t108 28q20 0 43.5 -7t42.5 -19l-24 -46q-13 8 -28.5 13t-33.5 5q-51 0 -88 -23.5t-100 -101.5l-290 -361l472 -499h138v-54h-168l-499 529h-198v-475h163v-54h-381z" />
<glyph unicode="&#x43b;" horiz-adv-x="1277" d="M69 0v53h35q114 0 170 117t56 420v438h-163v54h808h163v-54h-163v-974h163v-54h-381v54h163v973h-536v-437q0 -318 -65 -454t-218 -136h-32z" />
<glyph unicode="&#x43c;" horiz-adv-x="1684" d="M97 0v54h163v974h-163v54h163h74l492 -1000l492 1000h65h163v-54h-163v-974h163v-54h-381v54h163v911l-6 1l-475 -966h-42l-485 990l-6 -1v-935h163v-54h-380z" />
<glyph unicode="&#x43d;" horiz-adv-x="1351" d="M97 0v54h163v974h-163v54h380v-54h-163v-445h669v445h-163v54h163h55h163v-54h-163v-974h163v-54h-381v54h163v475h-669v-475h163v-54h-380z" />
<glyph unicode="&#x43e;" horiz-adv-x="1155" d="M104 0zM104 520v42q0 238 131.5 389t341.5 151q211 0 342.5 -151t131.5 -389v-42q0 -239 -131.5 -390t-340.5 -151q-211 0 -343 151t-132 390zM158 520q0 -204 114 -345.5t307 -141.5q190 0 304 142t114 345v42q0 199 -115 342.5t-305 143.5q-191 0 -305 -143.5 t-114 -342.5v-42z" />
<glyph unicode="&#x43f;" horiz-adv-x="1352" d="M97 0v54h163v974h-163v54h1104v-54h-163v-974h163v-54h-381v54h163v973h-669v-973h163v-54h-380z" />
<glyph unicode="&#x440;" horiz-adv-x="1161" d="M65 0zM65 -362h163v1390h-163v54h205l11 -194q54 100 147 157t221 57q191 0 299.5 -151.5t108.5 -408.5v-21q0 -250 -108 -396t-298 -146q-127 0 -221.5 51t-147.5 138v-530h163v-54h-380v54zM282 269q40 -108 134 -172t236 -64q171 0 260.5 132t89.5 356v21 q0 225 -90.5 365.5t-261.5 140.5q-157 0 -244 -79t-124 -194v-506z" />
<glyph unicode="&#x441;" horiz-adv-x="1086" d="M104 520v42q0 242 117 391t323 149q122 0 226 -50.5t167 -136.5v-232h-54v212q-57 70 -143.5 111.5t-195.5 41.5q-190 0 -288 -136t-98 -350v-42q0 -216 98 -351.5t290 -135.5q137 0 242 75t105 225h46l2 -6q4 -159 -116.5 -253.5t-278.5 -94.5q-207 0 -324.5 149 t-117.5 392z" />
<glyph unicode="&#x442;" horiz-adv-x="1083" d="M90 789v293h882v-293h-54v238h-371v-973h163v-54h-380v54h163v973h-349v-238h-54z" />
<glyph unicode="&#x443;" horiz-adv-x="1185" d="M55 0zM55 1028v54h319v-54h-142l335 -832l40 -108h6l6 16l353 924h-142v54h320v-54h-118l-460 -1208q-44 -114 -102.5 -185.5t-186.5 -71.5q-19 0 -42 3.5t-34 7.5l9 51q11 -3 33 -6t34 -3q92 0 143.5 54t91.5 160l65 176l-410 1022h-118z" />
<glyph unicode="&#x444;" horiz-adv-x="1450" d="M91 521v21q0 257 103 408.5t285 151.5q68 0 119 -19t87 -48v471h-163v54h217v-524q34 29 84.5 47.5t119.5 18.5q181 0 284.5 -151.5t103.5 -408.5v-21q0 -250 -103 -396t-283 -146q-67 0 -118.5 17.5t-87.5 44.5v-403h163v-54h-380v54h163v403q-38 -27 -90 -44.5 t-118 -17.5q-181 0 -283.5 146t-102.5 396zM147 521q0 -224 83.5 -356t245.5 -132q75 0 124.5 20.5t84.5 48.5v861q-24 34 -71 59.5t-136 25.5q-162 0 -246.5 -140.5t-84.5 -365.5v-21zM739 101q31 -26 81.5 -47t125.5 -21q162 0 246.5 132t84.5 356v21q0 225 -85.5 365.5 t-247.5 140.5q-88 0 -135 -25t-70 -58v-864z" />
<glyph unicode="&#x445;" horiz-adv-x="1192" d="M82 0v54h126l361 501l-341 473h-126v54h318v-54h-124l307 -426l306 426h-124v54h318v-54h-126l-341 -473l361 -501h126v-54h-317v54h124l-328 454l-327 -454h124v-54h-317zM82 0z" />
<glyph unicode="&#x446;" horiz-adv-x="1318" d="M70 0v54h163v974h-163v54h163h54h163v-54h-163v-974h669v974h-163v54h163h218v-54h-163v-974h121v-375h-54v321h-1008z" />
<glyph unicode="&#x447;" horiz-adv-x="1319" d="M65 1028v54h217h163v-54h-163v-180q0 -205 80 -278.5t275 -73.5q79 3 169.5 25.5t145.5 51.5v455h-163v54h380v-54h-163v-974h163v-54h-380v54h163v468q-66 -33 -156 -56.5t-159 -23.5q-221 0 -315 84.5t-94 321.5v180h-163z" />
<glyph unicode="&#x448;" horiz-adv-x="1843" d="M97 0v54h163v974h-163v54h217h163v-54h-163v-974h567v1028h55v-1028h558v974h-163v54h217h163v-54h-163v-974h163v-54h-1614z" />
<glyph unicode="&#x449;" horiz-adv-x="1844" d="M97 0v54h163v974h-163v54h163h54h163v-54h-163v-974h567v1028h55v-1028h558v974h-163v54h163h54h163v-54h-163v-974h163v-375h-54v321h-1560z" />
<glyph unicode="&#x44a;" horiz-adv-x="1407" d="M90 789v293h615v-54h-163v-358h345q182 0 284.5 -93.5t102.5 -241.5q0 -150 -102.5 -242.5t-284.5 -92.5h-562v54h163v974h-344v-239h-54zM542 54h345q166 0 249.5 80.5t83.5 202.5q0 117 -84 198t-249 81h-345v-562z" />
<glyph unicode="&#x44b;" horiz-adv-x="1535" d="M97 0v54h163v974h-163v54h163h54v-412h345q182 0 284.5 -93.5t102.5 -241.5q0 -150 -102.5 -242.5t-284.5 -92.5h-562zM314 54h345q166 0 249.5 80.5t83.5 202.5q0 117 -84 198t-249 81h-345v-562zM314 1028v54h163v-54h-163zM1126 0v54h163v974h-163v54h217v-1028h163 v-54h-380z" />
<glyph unicode="&#x44c;" horiz-adv-x="1174" d="M97 0v54h163v974h-163v54h163h54v-412h345q182 0 284.5 -93.5t102.5 -241.5q0 -150 -102.5 -242.5t-284.5 -92.5h-562zM314 54h345q166 0 249.5 80.5t83.5 202.5q0 117 -84 198t-249 81h-345v-562zM314 1028v54h163v-54h-163z" />
<glyph unicode="&#x44d;" horiz-adv-x="1067" d="M140 327l2 6h46q0 -150 104.5 -225t242.5 -75q190 0 288 134t96 344l-3 5h-571v54h571l3 5q0 206 -97.5 339.5t-284.5 133.5q-110 0 -196.5 -41.5t-142.5 -111.5v-212h-54v232q62 86 166 136.5t227 50.5q205 0 322.5 -149t117.5 -391v-42q0 -243 -118 -392t-324 -149 q-159 0 -279.5 94.5t-115.5 253.5z" />
<glyph unicode="&#x44e;" horiz-adv-x="1708" d="M90 0v54h163v974h-163v54h217v-525h303v5q0 238 131.5 389t341.5 151q211 0 342.5 -151t131.5 -389v-42q0 -239 -131.5 -390t-340.5 -151q-207 0 -338.5 146t-136.5 378h-303v-449h163v-54h-380zM664 520q0 -204 114 -345.5t307 -141.5q190 0 304 142t114 345v42 q0 199 -115 342.5t-305 143.5q-191 0 -305 -143.5t-114 -342.5v-42z" />
<glyph unicode="&#x44f;" horiz-adv-x="1252" d="M65 0v54h119l241 401q-121 19 -187 103t-66 208q0 140 96 228t269 88h563v-54h-163v-974h163v-54h-380v54h163v396h-388h-8l-271 -450h-151zM226 764q0 -110 67 -184.5t202 -74.5h388v522h-346q-157 0 -234 -74.5t-77 -188.5z" />
<glyph unicode="&#x450;" d="M112 0zM112 500v64q0 233 130 385.5t321 152.5q183 0 298.5 -120t115.5 -322v-83h-811v-13v-64q0 -196 115 -331.5t285 -135.5q121 0 202.5 33t139.5 99l29 -42q-64 -71 -155.5 -107.5t-215.5 -36.5q-185 0 -319.5 149.5t-134.5 371.5zM174 637l3 -6h746v33 q0 165 -100 274.5t-260 109.5q-161 0 -268 -117.5t-121 -293.5zM306 1514l2 5h89l220 -261l-2 -5h-75z" />
<glyph unicode="&#x451;" d="M112 0zM112 500v64q0 233 130 385.5t321 152.5q183 0 298.5 -120t115.5 -322v-83h-811v-13v-64q0 -196 115 -331.5t285 -135.5q121 0 202.5 33t139.5 99l29 -42q-64 -71 -155.5 -107.5t-215.5 -36.5q-185 0 -319.5 149.5t-134.5 371.5zM174 637l3 -6h746v33 q0 165 -100 274.5t-260 109.5q-161 0 -268 -117.5t-121 -293.5zM269 1352v118h137v-118h-137zM739 1352v118h136v-118h-136z" />
<glyph unicode="&#x452;" horiz-adv-x="1200" d="M7 1251v54h218v201h-163v54h163h54v-255h275v-54h-275v-397q50 118 147 183t237 65q169 0 256.5 -107t87.5 -337v-747q0 -167 -75.5 -257.5t-210.5 -90.5q-35 0 -66 5t-66 15l13 52q20 -6 54 -12t65 -6q110 0 170.5 76.5t60.5 217.5v749q0 213 -78.5 300.5t-209.5 87.5 q-175 0 -268 -104.5t-117 -267.5v-622h163v-54h-380v54h163v1197h-218z" />
<glyph unicode="&#x453;" horiz-adv-x="1030" d="M72 0v54h163v974h-163v54h813v-192h-54v137h-542v-973h163v-54h-380zM72 0zM445 1210l220 261h78l2 -5l-231 -261h-67z" />
<glyph unicode="&#x454;" horiz-adv-x="1086" d="M119 520v42q0 242 117 391t323 149q122 0 226 -50.5t167 -136.5v-232h-54v212q-57 70 -143.5 111.5t-195.5 41.5q-189 0 -286.5 -133.5t-95.5 -339.5l3 -5h553v-54h-553l-3 -5q-3 -210 95 -344t289 -134q137 0 242 75t105 225h46l2 -6q4 -159 -116.5 -253.5t-278.5 -94.5 q-207 0 -324.5 149t-117.5 392z" />
<glyph unicode="&#x455;" horiz-adv-x="1009" d="M103 0zM103 122v193h54v-163q59 -63 146 -91t184 -28q150 0 238 70t88 162q0 86 -73.5 156.5t-256.5 110.5q-191 40 -278.5 106.5t-87.5 190.5q0 116 98 194.5t264 78.5q116 0 214.5 -40t158.5 -107v-202h-54v175q-52 58 -132.5 89t-186.5 31q-152 0 -230 -65.5 t-78 -151.5q0 -85 66 -145t262 -105q181 -42 274.5 -114.5t93.5 -202.5q0 -127 -104 -206t-276 -79q-118 0 -217.5 38t-166.5 105z" />
<glyph unicode="&#x456;" horiz-adv-x="609" d="M89 0v54h163v974h-163v54h217v-1028h163v-54h-380zM89 0zM252 1422v138h54v-138h-54z" />
<glyph unicode="&#x457;" horiz-adv-x="608" d="M-13 1331v118h137v-118h-137zM0 0zM90 0v54h163v974h-163v54h217v-1028h163v-54h-380zM457 1331v118h136v-118h-136z" />
<glyph unicode="&#x458;" horiz-adv-x="555" d="M-13 -417l13 52q18 -6 45.5 -12t53.5 -6q110 0 170.5 77t60.5 217v1117h-163v54h217v-1171q0 -167 -75 -257.5t-210 -90.5q-30 0 -56 5t-56 15zM0 0zM324 1426v134h54v-134h-54z" />
<glyph unicode="&#x459;" horiz-adv-x="1794" d="M65 0v54h35q114 0 170 116.5t56 419.5v438h-163v54h818h163v-54h-163v-398h345q182 0 284.5 -88t102.5 -227q0 -141 -102.5 -228t-284.5 -87h-563v54h163v973h-546v-437q0 -318 -65 -454t-218 -136h-32zM981 54h345q166 0 249.5 75t83.5 188q0 108 -84 183.5t-249 75.5 h-345v-522z" />
<glyph unicode="&#x45a;" horiz-adv-x="1877" d="M97 0v54h163v974h-163v54h380v-54h-163v-396h669v396h-163v54h163h55h163v-54h-163v-398h345q182 0 284.5 -88t102.5 -227q0 -141 -102.5 -228t-284.5 -87h-563v54h163v524h-669v-524h163v-54h-380zM1038 54h345q166 0 249.5 75t83.5 188q0 108 -84 183.5t-249 75.5h-345 v-522z" />
<glyph unicode="&#x45b;" horiz-adv-x="1278" d="M17 1280v54h208v172h-163v54h217v-226h325v-54h-325v-426q50 118 147 183t237 65q169 0 256.5 -107t87.5 -337v-604h163v-54h-381v54h163v606q0 213 -78.5 300.5t-209.5 87.5q-175 0 -268 -104.5t-117 -267.5v-622h163v-54h-380v54h163v1226h-208z" />
<glyph unicode="&#x45c;" horiz-adv-x="1230" d="M97 0v54h163v974h-163v54h381v-54h-163v-446h208l297 367q71 88 120 116t108 28q20 0 43.5 -7t42.5 -19l-24 -46q-13 8 -28.5 13t-33.5 5q-51 0 -88 -23.5t-100 -101.5l-290 -361l472 -499h138v-54h-168l-499 529h-198v-475h163v-54h-381zM97 0zM526 1209l220 261h78 l2 -5l-231 -261h-67z" />
<glyph unicode="&#x45d;" horiz-adv-x="1352" d="M97 0v54h163v974h-163v54h217h163v-54h-163v-922l6 -2l663 978h55h163v-54h-163v-974h163v-54h-381v54h163v922l-6 2l-663 -978h-217zM97 0zM407 1492l2 5h89l220 -261l-2 -5h-75z" />
<glyph unicode="&#x45e;" horiz-adv-x="1185" d="M55 0zM55 1028v54h319v-54h-142l335 -832l40 -108h6l6 16l353 924h-142v54h320v-54h-118l-460 -1208q-44 -114 -102.5 -185.5t-186.5 -71.5q-19 0 -42 3.5t-34 7.5l9 51q11 -3 33 -6t34 -3q92 0 143.5 54t91.5 160l65 176l-410 1022h-118zM336 1455l2 6h46q0 -86 54 -139 t171 -53q112 0 168 54t56 138h46l2 -6q4 -107 -70 -174.5t-202 -67.5q-129 0 -203.5 67.5t-69.5 174.5z" />
<glyph unicode="&#x45f;" horiz-adv-x="1353" d="M98 0v54h163v974h-163v54h217h163v-54h-163v-974h669v974h-163v54h381v-54h-163v-974h163v-54h-521v-350h-54v350h-529z" />
<glyph unicode="&#x460;" horiz-adv-x="1751" d="M144 429v1027h54v-1027q0 -187 90 -291.5t234 -104.5q142 0 232.5 104.5t90.5 291.5v1027h54v-1027q0 -187 89.5 -291.5t234.5 -104.5q142 0 232.5 104.5t90.5 291.5v1027h54v-1027q0 -219 -104 -334.5t-273 -115.5q-127 0 -219.5 65t-131.5 192q-40 -127 -132 -192 t-218 -65q-170 0 -274 115.5t-104 334.5z" />
<glyph unicode="&#x461;" horiz-adv-x="1631" d="M150 409v673h54v-673q0 -178 84 -277t220 -99q134 0 218.5 99t84.5 277v673h54v-673q0 -177 84.5 -276.5t219.5 -99.5q134 0 218.5 99t84.5 277v673h54v-673q0 -209 -98.5 -319.5t-258.5 -110.5q-119 0 -206 61t-125 180q-39 -119 -126 -180t-204 -61 q-161 0 -259.5 110.5t-98.5 319.5z" />
<glyph unicode="&#x462;" horiz-adv-x="1289" d="M3 1120v54h230v228h-163v54h217v-282h303v-54h-303v-332h369q227 0 349 -107.5t122 -286.5q0 -180 -122 -287t-349 -107h-586v54h163v1066h-230zM287 54h369q209 0 312.5 96t103.5 246q0 144 -104 241t-312 97h-369v-680zM287 1402v54h163v-54h-163z" />
<glyph unicode="&#x463;" horiz-adv-x="1080" d="M-23 1082v54h204v372h-163v54h217v-426h329v-54h-329v-412h345q182 0 284.5 -93.5t102.5 -241.5q0 -150 -102.5 -242.5t-284.5 -92.5h-562v54h163v1028h-204zM235 54h345q166 0 249.5 80.5t83.5 202.5q0 117 -84 198t-249 81h-345v-562z" />
<glyph unicode="&#x464;" horiz-adv-x="1748" d="M67 0v54h163v1348h-163v54h163h54h163v-54h-163v-608h302q15 307 189 495.5t447 188.5q158 0 286.5 -62t202.5 -169v-254h-55v234q-67 90 -179 143.5t-255 53.5q-247 0 -406.5 -172.5t-170.5 -452.5l2 -5h546v-54h-554v-20q0 -307 161 -496.5t412 -189.5q144 0 261 53.5 t183 143.5v234h55v-254q-73 -107 -206 -169t-293 -62q-277 0 -452 205.5t-175 534.5v18v2h-301v-686h163v-54h-380z" />
<glyph unicode="&#x465;" horiz-adv-x="1540" d="M88 0v54h163v974h-163v54h163h54v-494h241q6 232 122.5 373t317.5 141q122 0 226 -50.5t167 -136.5v-232h-54v212q-57 70 -143.5 111.5t-195.5 41.5q-185 0 -282 -127.5t-99 -327.5l2 -5h565v-54h-572v-14q0 -216 98 -351.5t290 -135.5q137 0 242 75t105 225h46l2 -6 q4 -159 -116.5 -253.5t-278.5 -94.5q-207 0 -324.5 149t-117.5 392v14h-241v-480h163v-54h-380z" />
<glyph unicode="&#x466;" horiz-adv-x="1434" d="M52 0v54h107l524 1402h66l525 -1402h107v-54h-309v54h142l-170 454h-307v-508h-54v508h-295l-170 -454h143v-54h-309zM408 562h616l-277 742l-28 85h-6l-27 -85z" />
<glyph unicode="&#x467;" horiz-adv-x="1268" d="M62 0v54h110l438 1026v2h52l438 -1028h110v-54h-145l-174 395h-224v-395h-54v395h-233l-172 -395h-146zM404 449h463l-177 404l-51 146h-6l-52 -146z" />
<glyph unicode="&#x468;" horiz-adv-x="1992" d="M85 0v54h163v1348h-163v54h163h54h163v-54h-163v-840h575l335 894h66l525 -1402h107v-54h-309v54h142l-170 454h-307v-508h-54v508h-295l-170 -454h143v-54h-309v54h107l169 454h-555v-454h163v-54h-380zM937 562h616l-277 742l-28 85h-6l-27 -85z" />
<glyph unicode="&#x469;" horiz-adv-x="1716" d="M95 0v54h163v974h-163v54h163h54v-633h475l270 631v2h52l438 -1028h110v-54h-145l-174 395h-224v-395h-54v395h-233l-172 -395h-146v54h110l145 341h-452v-341h163v-54h-380zM851 449h463l-177 404l-51 146h-6l-52 -146z" />
<glyph unicode="&#x46a;" horiz-adv-x="1804" d="M55 0v54h163v335q0 188 104.5 274t302.5 86h161l-437 653h-123v54h1240v-54h-123l-438 -653h165q198 0 302 -86t104 -274v-335h163v-54h-380v54h163v335q0 166 -84 236t-268 70h-197v-641h163v-54h-380v54h163v641h-194q-184 0 -268 -70t-84 -236v-335h163v-54h-381z M413 1402l406 -619l21 -34h11l21 34l405 619h-864z" />
<glyph unicode="&#x46b;" horiz-adv-x="1588" d="M59 0v54h163v171q0 189 104.5 274.5t303.5 85.5h47l-330 443h-127v54h1063v-54h-127l-330 -443h44q198 0 302.5 -86t104.5 -274v-171h163v-54h-217v225q0 165 -84.5 235t-268.5 70h-85l-7 -10v-466h163v-54h-380v54h163v467l-6 9h-88q-185 0 -269 -70t-84 -235v-225h-218 zM413 1027l322 -431l5 -11h22l6 12l322 430h-677z" />
<glyph unicode="&#x46c;" horiz-adv-x="2372" d="M66 0v54h163v1348h-163v54h163h54h163v-54h-163v-653h857h10h161l-437 653h-123v54h1240v-54h-123l-438 -653h165q198 0 302 -86t104 -274v-335h163v-54h-380v54h163v335q0 166 -84 236t-268 70h-197v-641h163v-54h-380v54h163v641h-194q-184 0 -268 -70t-84 -236v-335 h163v-54h-381v54h163v335q0 113 38 188.5t113 117.5h-611v-641h163v-54h-380zM938 1402l406 -619l21 -34h11l21 34l405 619h-864z" />
<glyph unicode="&#x46d;" horiz-adv-x="2050" d="M90 0v54h163v974h-163v54h163h54v-497h665v-2q18 0 33.5 1t30.5 1h47l-330 443h-127v54h1063v-54h-127l-330 -443h44q198 0 302.5 -86t104.5 -274v-171h163v-54h-217v225q0 165 -84.5 235t-268.5 70h-85l-7 -10v-466h163v-54h-380v54h163v467l-6 9h-88q-185 0 -269 -70 t-84 -235v-225h-593zM307 54h321v171q0 112 37.5 187t110.5 118h-469v-476zM819 1027l322 -431l5 -11h22l6 12l322 430h-677z" />
<glyph unicode="&#x46e;" horiz-adv-x="1029" d="M65 -142q0 89 59.5 142.5t187.5 53.5h82q214 0 343.5 88t129.5 240q0 174 -117 253.5t-348 79.5h-123v56h123q227 0 334.5 82t107.5 234q0 145 -94.5 235t-283.5 90q-110 0 -196.5 -41.5t-142.5 -111.5v-212h-54v232q62 86 166 136.5t227 50.5q200 0 316.5 -101 t116.5 -282q0 -117 -75.5 -208t-213.5 -130q156 -34 234 -125t78 -234q0 -178 -152 -282t-376 -103h-82q-104 0 -149 -35.5t-45 -106.5q0 -61 59 -114t121 -71l-15 -52q-75 21 -146.5 88.5t-71.5 147.5zM226 1852v14h71l183 -187l184 187h67v-16l-212 -207h-79z" />
<glyph unicode="&#x46f;" horiz-adv-x="940" d="M86 753v162q56 77 149 122t204 45q182 0 287.5 -69.5t105.5 -199.5q0 -85 -59.5 -153t-168.5 -101q124 -28 187 -92.5t63 -162.5q0 -139 -134.5 -221.5t-331.5 -81.5h-41q-104 0 -149 -35.5t-45 -106.5q0 -61 59 -114t122 -71l-16 -52q-74 21 -146 88.5t-72 147.5 q0 89 60 142.5t187 53.5h41q186 0 298.5 66t112.5 180q0 120 -101 174.5t-303 54.5h-122v56h122q196 0 288.5 60t92.5 172q0 95 -84 152.5t-253 58.5q-97 0 -173 -36t-126 -97v-142h-54zM191 1535v14h71l183 -187l184 187h67v-16l-212 -207h-79z" />
<glyph unicode="&#x470;" horiz-adv-x="1620" d="M55 0zM55 1402v54h163h55v-510q0 -211 131 -339t338 -130l6 2v923h-163v54h163h55h163v-54h-163v-923l6 -3q207 0 340 128.5t133 341.5v510h54h163v-54h-163v-456q0 -245 -147.5 -385.5t-385.5 -144.5v-362h163v-54h-381v54h163v362q-238 6 -384 146t-146 384v456h-163z " />
<glyph unicode="&#x471;" horiz-adv-x="1524" d="M8 0zM8 1058q30 18 69.5 29.5t82.5 11.5q72 0 102 -31t30 -105v-375q-1 -274 115 -409t320 -138l6 2v1038h54v-1039l6 -2q252 2 359.5 156t107.5 392q0 134 -41.5 258t-110.5 236h67q67 -126 103 -230.5t36 -261.5q0 -277 -129.5 -440t-397.5 -170v-395h-54v395 q-236 10 -366 159t-129 451v372q0 45 -19.5 64t-58.5 19q-35 0 -67 -8.5t-65 -24.5z" />
<glyph unicode="&#x472;" horiz-adv-x="1372" d="M120 719v18q0 335 168 537.5t440 202.5q271 0 440.5 -202.5t169.5 -537.5v-18q0 -336 -168.5 -538t-439.5 -202q-272 0 -441 202.5t-169 537.5zM179 760l3 -5h1094l2 5q0 298 -150.5 480.5t-399.5 182.5t-398.5 -182t-150.5 -481zM180 696q1 -300 151 -481.5t399 -181.5 t398 181.5t151 481.5l-3 5h-1094z" />
<glyph unicode="&#x473;" horiz-adv-x="1176" d="M104 520v42q0 238 131.5 389t341.5 151q211 0 342.5 -151t131.5 -389v-42q0 -239 -131.5 -390t-340.5 -151q-211 0 -343 151t-132 390zM163 508q-2 -197 111.5 -336t304.5 -139q188 0 301 139t112 336l-2 5h-825zM163 572l2 -5h825l2 5q2 193 -112 334.5t-303 141.5 q-190 0 -303.5 -141t-110.5 -335z" />
<glyph unicode="&#x474;" horiz-adv-x="1387" d="M57 1402v54h309v-54h-146l400 -1260l25 -77h6l26 77l352 1086q41 135 111.5 191.5t179.5 56.5h9l-1 -47h-10q-80 0 -141 -41.5t-104 -183.5l-392 -1204h-65l-455 1402h-104z" />
<glyph unicode="&#x475;" horiz-adv-x="1199" d="M65 1028v54h308v-54h-145l274 -799l51 -147l6 -1l53 148l217 645q42 124 101 175.5t151 51.5q29 0 56 -8.5t47 -19.5l-23 -41q-14 8 -36 15t-48 7q-64 0 -112.5 -38t-91.5 -167l-291 -849h-52v1l-359 1027h-106z" />
<glyph unicode="&#x476;" horiz-adv-x="1387" d="M57 0zM57 1402v54h309v-54h-146l400 -1260l25 -77h6l26 77l352 1086q41 135 111.5 191.5t179.5 56.5h9l-1 -47h-10q-80 0 -141 -41.5t-104 -183.5l-392 -1204h-65l-455 1402h-104zM225 1790l2 6h72l285 -260l-2 -6h-65zM498 1790l3 6h68l241 -261l-2 -5h-62z" />
<glyph unicode="&#x477;" horiz-adv-x="1199" d="M65 0zM65 1028v54h308v-54h-145l274 -799l51 -147l6 -1l53 148l217 645q42 124 101 175.5t151 51.5q29 0 56 -8.5t47 -19.5l-23 -41q-14 8 -36 15t-48 7q-64 0 -112.5 -38t-91.5 -167l-291 -849h-52v1l-359 1027h-106zM130 1495l2 6h72l285 -260l-2 -6h-65zM403 1495l3 6 h68l241 -261l-2 -5h-62z" />
<glyph unicode="&#x478;" horiz-adv-x="2673" d="M130 0zM130 719v18q0 335 168 537.5t440 202.5q271 0 440.5 -202.5t169.5 -537.5v-18q0 -336 -168.5 -538t-439.5 -202q-272 0 -441 202.5t-169 537.5zM185 719q0 -311 151 -498.5t404 -187.5t403.5 187.5t150.5 498.5v20q0 309 -151.5 496.5t-404.5 187.5 q-252 0 -402.5 -187.5t-150.5 -496.5v-20zM1543 1028v54h319v-54h-142l335 -832l40 -108h6l6 16l353 924h-142v54h320v-54h-118l-460 -1208q-44 -114 -102.5 -185.5t-186.5 -71.5q-19 0 -42 3.5t-34 7.5l9 51q11 -3 33 -6t34 -3q92 0 143.5 54t91.5 160l65 176l-410 1022 h-118z" />
<glyph unicode="&#x479;" horiz-adv-x="2340" d="M104 0zM104 520v42q0 238 131.5 389t341.5 151q211 0 342.5 -151t131.5 -389v-42q0 -239 -131.5 -390t-340.5 -151q-211 0 -343 151t-132 390zM158 520q0 -204 114 -345.5t307 -141.5q190 0 304 142t114 345v42q0 199 -115 342.5t-305 143.5q-191 0 -305 -143.5 t-114 -342.5v-42zM1210 1028v54h319v-54h-142l335 -832l40 -108h6l6 16l353 924h-142v54h320v-54h-118l-460 -1208q-44 -114 -102.5 -185.5t-186.5 -71.5q-19 0 -42 3.5t-34 7.5l9 51q11 -3 33 -6t34 -3q92 0 143.5 54t91.5 160l65 176l-410 1022h-118z" />
<glyph unicode="&#x47a;" horiz-adv-x="1453" d="M120 719v18q0 335 168 537.5t440 202.5q271 0 440.5 -202.5t169.5 -537.5v-18q0 -336 -168.5 -538t-439.5 -202q-272 0 -441 202.5t-169 537.5zM175 719q0 -311 151 -498.5t404 -187.5t403.5 187.5t150.5 498.5v20q0 309 -151.5 496.5t-404.5 187.5q-252 0 -402.5 -187.5 t-150.5 -496.5v-20zM709 -144v307h54v-307h-54zM709 1291v307h54v-307h-54z" />
<glyph unicode="&#x47b;" horiz-adv-x="1156" d="M104 520v42q0 238 131.5 389t341.5 151q211 0 342.5 -151t131.5 -389v-42q0 -239 -131.5 -390t-340.5 -151q-211 0 -343 151t-132 390zM158 520q0 -204 114 -345.5t307 -141.5q190 0 304 142t114 345v42q0 199 -115 342.5t-305 143.5q-191 0 -305 -143.5t-114 -342.5v-42 zM516 -146v307h54v-307h-54zM516 910v307h54v-307h-54z" />
<glyph unicode="&#x47c;" horiz-adv-x="1733" d="M136 429v575q0 218 103.5 333t268.5 110l6 -2v-45q-144 0 -234 -105t-90 -291v-575q0 -187 90 -291.5t234 -104.5q142 0 232.5 104.5t90.5 291.5v510h54v-510q0 -187 90 -291.5t233 -104.5t233.5 104.5t90.5 291.5v575q0 186 -90.5 291t-233.5 105v45l6 2q164 5 268 -110 t104 -333v-575q0 -219 -104.5 -334.5t-273.5 -115.5q-127 0 -219 65t-131 192q-40 -127 -132 -192t-218 -65q-170 0 -274 115.5t-104 334.5zM637 1559v26q0 96 64 162t172 66q87 0 213.5 -98t234.5 -98h14v-44h-17q-126 0 -247.5 93.5t-193.5 93.5q-91 0 -138 -53.5 t-47 -129.5v-18h-55zM776 1370l64 126v139h97v-142l-125 -151z" />
<glyph unicode="&#x47d;" horiz-adv-x="1558" d="M114 409v258q0 208 97.5 318t254.5 105l6 -2v-45q-136 0 -220 -99.5t-84 -276.5v-258q0 -178 84 -277t220 -99q134 0 218.5 99t84.5 277v254h54v-254q0 -178 84 -277t219 -99t219.5 99t84.5 277v258q0 177 -84.5 276.5t-219.5 99.5v45l6 2q156 5 254 -105t98 -318v-258 q0 -209 -99 -319.5t-259 -110.5q-119 0 -205.5 61t-124.5 180q-39 -119 -126 -180t-204 -61q-161 0 -259.5 110.5t-98.5 319.5zM565 1259v26q0 96 64 162t172 66q87 0 213.5 -98t234.5 -98h14v-44h-17q-126 0 -247.5 93.5t-193.5 93.5q-91 0 -138 -53.5t-47 -129.5v-18h-55z M704 1070l64 126v139h97v-142l-125 -151z" />
<glyph unicode="&#x47e;" horiz-adv-x="1750" d="M144 429q0 -219 104 -334.5t274 -115.5q126 0 218 65t132 192q39 -127 131.5 -192t219.5 -65q169 0 273 115.5t104 334.5v1027h-54v-1027q0 -187 -90.5 -291.5t-232.5 -104.5q-145 0 -234.5 104.5t-89.5 291.5v1027h-54v-1027q0 -187 -90.5 -291.5t-232.5 -104.5 q-144 0 -234 104.5t-90 291.5v1027h-54v-1027zM563 1705v56h699l2 -56h-332v-103h-54v103h-315z" />
<glyph unicode="&#x47f;" horiz-adv-x="1589" d="M150 409q0 -209 98.5 -319.5t259.5 -110.5q117 0 204 61t126 180q38 -119 125 -180t206 -61q160 0 258.5 110.5t98.5 319.5v673h-54v-673q0 -178 -84.5 -277t-218.5 -99q-135 0 -219.5 99.5t-84.5 276.5v673h-54v-673q0 -178 -84.5 -277t-218.5 -99q-136 0 -220 99 t-84 277v673h-54v-673zM478 1400l3 56h699l2 -56h-333v-133h-54v133h-317z" />
<glyph unicode="&#x480;" horiz-adv-x="1241" d="M114 619v218q0 286 144 463t383 177q228 0 367.5 -119t135.5 -340l-2 -6h-46q0 197 -122.5 304t-332.5 107q-213 0 -343 -161t-130 -423v-220q0 -265 130 -425.5t343 -160.5h46v-384h-55v330q-236 4 -377 179.5t-141 460.5z" />
<glyph unicode="&#x481;" horiz-adv-x="1037" d="M104 520v42q0 240 122 390t329 150q166 0 278.5 -98.5t108.5 -277.5l-2 -6h-46q0 159 -97.5 243.5t-241.5 84.5q-191 0 -293 -137t-102 -349v-42q0 -212 100 -348.5t289 -138.5h54v-384h-54v330q-205 3 -325 152.5t-120 388.5z" />
<glyph unicode="&#x482;" horiz-adv-x="1096" d="M39 569l38 68l293 -171l235 420l-290 171l40 70l291 -171l218 386h99l-251 -435l293 -171l-43 -67l-288 170l-237 -420l289 -172l-39 -68l-291 170l-191 -349h-102l225 398z" />
<glyph unicode="&#x483;" horiz-adv-x="925" d="M156 1241v173h481v108h55v-160h-478v-121h-58z" />
<glyph unicode="&#x484;" horiz-adv-x="1014" d="M137 1317v44h14q107 0 233.5 98t214.5 98q107 0 171.5 -66t64.5 -162v-26h-55v18q0 76 -47.5 129.5t-137.5 53.5q-73 0 -194.5 -93.5t-246.5 -93.5h-17z" />
<glyph unicode="&#x485;" horiz-adv-x="458" d="M126 1500v142h97v-139l64 -126l-36 -28z" />
<glyph unicode="&#x486;" horiz-adv-x="453" d="M126 1377l64 126v139h97v-142l-125 -151z" />
<glyph unicode="&#x488;" horiz-adv-x="2033" d="M49 493q-5 78 51.5 130t152.5 52t152.5 -51.5t52.5 -130.5l-2 -6h-104q0 44 -24 72.5t-75 28.5q-50 0 -73.5 -29t-23.5 -72h-105zM215 -26q-5 78 51.5 130t152.5 52t153 -51.5t53 -130.5l-2 -6h-105q0 44 -24 72.5t-75 28.5q-50 0 -73 -29t-23 -72h-106zM225 996 q-5 79 51.5 130.5t153.5 51.5q96 0 152.5 -51.5t52.5 -130.5l-2 -6h-104q0 43 -24.5 72t-74.5 29t-73.5 -29t-23.5 -72h-106zM798 1273q-5 79 51 130.5t153 51.5q96 0 152.5 -51.5t52.5 -130.5l-2 -6h-104q0 43 -24.5 72t-74.5 29t-73.5 -29t-23.5 -72h-105zM803 -310 q-5 80 51 131t153 51q96 0 152.5 -51t52.5 -131l-2 -6h-104q0 44 -24.5 72.5t-74.5 28.5t-73.5 -28.5t-23.5 -72.5h-105zM1379 -26q-5 78 51.5 130t152.5 52t152.5 -51.5t52.5 -130.5l-2 -6h-104q0 44 -24 72.5t-75 28.5q-50 0 -73.5 -29t-23.5 -72h-105zM1389 996 q-5 78 51.5 130t152.5 52t153 -51.5t53 -130.5l-2 -6h-105q0 44 -24 72.5t-75 28.5q-50 0 -73 -29t-23 -72h-106zM1576 493q-5 78 51.5 130t152.5 52t152.5 -51.5t52.5 -130.5l-2 -6h-104q0 44 -24 72.5t-75 28.5q-50 0 -73.5 -29t-23.5 -72h-105z" />
<glyph unicode="&#x489;" horiz-adv-x="1965" d="M49 545v98l346 -71v-139l-13 -12zM244 -80l294 200l97 -99l-2 -17l-320 -153zM330 1188l65 69l198 -299l-98 -98l-17 2zM869 -413l70 353h137l11 -14l-122 -339h-96zM869 1140l122 338h96l-70 -352h-136zM1319 1002l2 16l321 153l68 -68q-37 -23 -294 -200zM1360 62 l97 99l17 -2l149 -325l-66 -71zM1559 492v139l13 12l333 -124v-98z" />
<glyph unicode="&#x48a;" horiz-adv-x="1552" d="M77 0v54h163v1348h-163v54h163h54h163v-54h-163v-1122l6 -2l935 987v137h-163v54h163h54h163v-54h-163v-1348h163v-54h-380v54h163v1126l-6 2l-935 -988v-140h163v-54h-380zM77 0zM463 1798l2 6h46q0 -86 54 -139t171 -53q112 0 168 54t56 138h46l2 -6q4 -107 -70 -174.5 t-202 -67.5q-129 0 -203.5 67.5t-69.5 174.5zM1362 -247q46 61 67.5 117.5t21.5 130.5v134h54v-132q0 -88 -28 -158t-78 -124z" />
<glyph unicode="&#x48b;" horiz-adv-x="1352" d="M97 0v54h163v974h-163v54h217h163v-54h-163v-922l6 -2l663 978h55h163v-54h-163v-974h163v-54h-381v54h163v922l-6 2l-663 -978h-217zM97 0zM395 1455l2 6h46q0 -86 54 -139t171 -53q112 0 168 54t56 138h46l2 -6q4 -107 -70 -174.5t-202 -67.5q-129 0 -203.5 67.5 t-69.5 174.5zM1111 -247q46 61 67.5 117.5t21.5 130.5v134h54v-132q0 -88 -28 -158t-78 -124z" />
<glyph unicode="&#x48c;" horiz-adv-x="1289" d="M3 1120v54h230v228h-163v54h217v-282h303v-54h-303v-332h369q227 0 349 -107.5t122 -286.5q0 -180 -122 -287t-349 -107h-586v54h163v1066h-230zM287 54h369q209 0 312.5 96t103.5 246q0 144 -104 241t-312 97h-369v-680zM287 1402v54h163v-54h-163z" />
<glyph unicode="&#x48d;" horiz-adv-x="1080" d="M-23 1402v54h204v112h-163v54h217v-166h329v-54h-329v-732h345q182 0 284.5 -93.5t102.5 -241.5q0 -150 -102.5 -242.5t-284.5 -92.5h-562v54h163v1348h-204zM235 54h345q166 0 249.5 80.5t83.5 202.5q0 117 -84 198t-249 81h-345v-562z" />
<glyph unicode="&#x48e;" horiz-adv-x="1271" d="M64 0v54h163v1348h-163v54h163h405q226 0 348 -113.5t122 -301.5q0 -190 -121.5 -303t-348.5 -113h-351v-571h163v-54h-380zM281 679h351q207 0 311.5 103t104.5 257q0 158 -104 260.5t-312 102.5h-351v-723zM755 859l41 35l301 -353l-41 -35z" />
<glyph unicode="&#x48f;" horiz-adv-x="1234" d="M65 -362h163v1390h-163v54h205l11 -194q54 100 147 157t221 57q191 0 299.5 -151.5t108.5 -408.5v-21q0 -250 -108 -396t-298 -146q-127 0 -221.5 51t-147.5 138v-530h163v-54h-380v54zM282 269q40 -108 134 -172t236 -64q171 0 260.5 132t89.5 356v21q0 225 -90.5 365.5 t-261.5 140.5q-157 0 -244 -79t-124 -194v-506zM676 250l45 32l249 -345l-44 -33z" />
<glyph unicode="&#x490;" horiz-adv-x="1192" d="M77 0v54h163v1348h-163v54h980v372h54v-427h-54v1h-763v-1348h163v-54h-380z" />
<glyph unicode="&#x491;" horiz-adv-x="1028" d="M72 0v54h163v974h-163v54h163h596v372h54v-427h-596v-973h163v-54h-380z" />
<glyph unicode="&#x492;" horiz-adv-x="1203" d="M77 0v54h163v677h-111v54h111v617h-163v54h1025v-293h-54v239h-754v-617h422v-54h-422v-677h163v-54h-380z" />
<glyph unicode="&#x493;" horiz-adv-x="1030" d="M35 558v54h200v416h-163v54h823v-192h-54v137h-552v-415h333v-54h-333v-504h163v-54h-380v54h163v504h-200z" />
<glyph unicode="&#x494;" horiz-adv-x="1203" d="M77 0v54h163v1348h-163v54h1025v-293h-54v239h-754v-579h227q256 0 408 -134.5t152 -430.5q0 -196 -111.5 -364.5t-322.5 -164.5l-6 2v42q180 0 283 147t103 338q0 260 -139 386t-367 126h-227v-716h163v-54h-380z" />
<glyph unicode="&#x495;" horiz-adv-x="1083" d="M72 0v54h163v974h-163v54h163h650v-192h-54v137h-542v-421h178q238 0 379 -106.5t141 -338.5q3 -127 -83.5 -252.5t-280.5 -163.5l-16 42q173 35 247.5 142t78.5 232q6 199 -124 295.5t-342 96.5h-178v-499h163v-54h-380z" />
<glyph unicode="&#x496;" horiz-adv-x="2020" d="M55 0zM55 1441q18 12 41.5 19t44.5 7q60 0 109.5 -27.5t118.5 -116.5l422 -550h181v629h-163v54h163h54h163v-54h-163v-629h184l422 550q68 89 117.5 116.5t110.5 27.5q20 0 43.5 -7t42.5 -19l-24 -46q-13 8 -28.5 13t-33.5 5q-53 0 -90.5 -23t-97.5 -102l-420 -548 l551 -686h131v-54h-322v54h112l3 5l-530 661h-171v-666h163v-54h-380v54h163v666h-173l-530 -661l3 -5h113v-54h-322v54h130l553 689l-417 545q-61 79 -98.5 102t-89.5 23q-19 0 -34.5 -5t-27.5 -13zM1880 54h54v-406h-54v406z" />
<glyph unicode="&#x497;" horiz-adv-x="1801" d="M75 0v54h137l469 506l-285 354q-63 78 -100 101.5t-88 23.5q-19 0 -34.5 -5t-27.5 -13l-24 46q18 12 41.5 19t44.5 7q58 0 107 -28t121 -116l297 -367h153v446h-163v54h217h163v-54h-163v-446h160l297 367q71 88 120 116t108 28q20 0 43.5 -7t42.5 -19l-24 -46 q-13 8 -28.5 13t-33.5 5q-51 0 -88 -23.5t-100 -101.5l-287 -357l467 -503h137v-54h-158l-500 529h-156v-475h163v-54h-380v54h163v475h-154l-499 -529h-158zM75 0zM1701 54h54v-406h-54v406z" />
<glyph unicode="&#x498;" horiz-adv-x="1211" d="M71 0zM76 398l2 6h46q0 -163 125 -267t323 -104q219 0 340.5 92.5t121.5 256.5q0 174 -117 253.5t-350 79.5h-184v56h184q228 0 336 82t108 234q0 153 -110 244.5t-329 91.5q-144 0 -256 -53.5t-178 -143.5v-214h-55v234q73 107 201.5 169t287.5 62q229 0 361 -102 t132 -292q0 -118 -75.5 -208.5t-215.5 -129.5q158 -34 236 -124.5t78 -234.5q0 -190 -143.5 -298.5t-372.5 -108.5q-201 0 -351 109t-145 310zM539 54h54v-406h-54v406z" />
<glyph unicode="&#x499;" horiz-adv-x="1030" d="M84 0zM89 295l2 6h46q0 -114 100.5 -188.5t251.5 -74.5q170 0 259.5 65.5t89.5 183.5q0 124 -87 181t-265 57h-145v55h145q175 0 254 58t79 167t-80.5 174t-249.5 65q-137 0 -235.5 -68t-98.5 -177h-46l-2 6q-6 129 108.5 211t273.5 82q182 0 283.5 -76.5t101.5 -219.5 q0 -85 -54.5 -151t-155.5 -97q115 -27 172 -93.5t57 -170.5q0 -144 -111 -225.5t-293 -81.5q-160 0 -282.5 81.5t-117.5 230.5zM478 45h54v-406h-54v406z" />
<glyph unicode="&#x49a;" horiz-adv-x="1388" d="M71 0v54h163v1348h-163v54h380v-54h-163v-638h238l565 633l-2 5h-168v54h361v-54h-115l-596 -672l639 -676h118v-54h-361v54h163l3 6l-622 651h-223v-657h163v-54h-380zM71 0zM1274 54h54v-406h-54v406z" />
<glyph unicode="&#x49b;" horiz-adv-x="1230" d="M97 0v54h163v974h-163v54h381v-54h-163v-446h208l297 367q71 88 120 116t108 28q20 0 43.5 -7t42.5 -19l-24 -46q-13 8 -28.5 13t-33.5 5q-51 0 -88 -23.5t-100 -101.5l-290 -361l472 -499h138v-54h-168l-499 529h-198v-475h163v-54h-381zM97 0zM1126 54h54v-406h-54v406 z" />
<glyph unicode="&#x49c;" horiz-adv-x="1432" d="M70 0v54h163v1348h-163v54h217h163v-54h-163v-629h185v308h55v-308h100l382 550q68 89 117.5 116.5t110.5 27.5q20 0 43.5 -7t42.5 -19l-24 -46q-13 8 -28.5 13t-33.5 5q-53 0 -90.5 -23t-97.5 -102l-374 -537l515 -697h127v-54h-158l-529 720h-103v-323h-55v323h-185 v-666h163v-54h-380z" />
<glyph unicode="&#x49d;" horiz-adv-x="1296" d="M90 0v54h163v974h-163v54h218h163v-54h-163v-446h172v268h55v-268h86l257 367q63 90 113.5 117t114.5 27q20 0 43.5 -7t42.5 -19l-24 -46q-13 8 -28.5 13t-33.5 5q-55 0 -93.5 -23t-94.5 -102l-242 -345l389 -515h118v-54h-159l-388 529h-101v-279h-55v279h-172v-475h163 v-54h-381z" />
<glyph unicode="&#x49e;" horiz-adv-x="1408" d="M23 1158v54h231v190h-163v54h380v-54h-163v-190h302v-54h-302v-394h238l565 633l-2 5h-168v54h361v-54h-115l-596 -672l639 -676h118v-54h-361v54h163l3 6l-622 651h-223v-657h163v-54h-380v54h163v1104h-231z" />
<glyph unicode="&#x49f;" horiz-adv-x="1172" d="M82 0v54h163v1210h-136v54h136v188h-163v54h217v-242h397v-54h-397v-657h127l430 415l-2 6h-119v54h321v-54h-122l-447 -439l489 -535h117v-54h-320v54h126l2 5l-454 494h-148v-499h163v-54h-380z" />
<glyph unicode="&#x4a0;" horiz-adv-x="1786" d="M57 1163v293h572h54h163v-54h-163v-639h234l432 560q68 89 117.5 116.5t110.5 27.5q20 0 43.5 -7t42.5 -19l-24 -46q-13 8 -28.5 13t-33.5 5q-53 0 -90.5 -23t-97.5 -102l-427 -554l643 -680h118v-54h-361v54h163l3 6l-621 650h-224v-656h163v-54h-380v54h163v1348h-518 v-239h-54z" />
<glyph unicode="&#x4a1;" horiz-adv-x="1566" d="M82 789v293h436h55h163v-54h-163v-446h208l297 367q71 88 120 116t108 28q20 0 43.5 -7t42.5 -19l-24 -46q-13 8 -28.5 13t-33.5 5q-51 0 -88 -23.5t-100 -101.5l-290 -361l472 -499h138v-54h-168l-499 529h-198v-475h163v-54h-381v54h163v974h-382v-239h-54z" />
<glyph unicode="&#x4a2;" horiz-adv-x="1506" d="M71 0v54h163v1348h-163v54h380v-54h-163v-653h930v653h-163v54h163h54h163v-54h-163v-1348h163v-54h-380v54h163v641h-930v-641h163v-54h-380zM71 0zM1381 54h54v-406h-54v406z" />
<glyph unicode="&#x4a3;" horiz-adv-x="1351" d="M97 0v54h163v974h-163v54h380v-54h-163v-445h669v445h-163v54h163h55h163v-54h-163v-974h163v-54h-381v54h163v475h-669v-475h163v-54h-380zM97 0zM1147 54h54v-406h-54v406z" />
<glyph unicode="&#x4a4;" horiz-adv-x="2067" d="M66 0v54h163v1348h-163v54h163h54h163v-54h-163v-653h930v653h-163v54h1001v-293h-54v239h-730v-1348h163v-54h-380v54h163v641h-930v-641h163v-54h-380z" />
<glyph unicode="&#x4a5;" horiz-adv-x="1505" d="M97 0v54h163v974h-163v54h163h54h163v-54h-163v-445h669v444h-7l-1 1h-155v54h661v-293h-54v238h-389v-973h163v-54h-381v54h163v475h-669v-475h163v-54h-380z" />
<glyph unicode="&#x4a6;" horiz-adv-x="2079" d="M56 0v54h163v1348h-163v54h1364v-54h-163v-564h217q256 0 408 -134.5t152 -430.5q0 -196 -111.5 -364.5t-322.5 -164.5l-6 2v42q180 0 283 147t103 338q0 260 -139 386t-367 126h-217v-731h163v-54h-380v54h163v1348h-930v-1348h163v-54h-380z" />
<glyph unicode="&#x4a7;" horiz-adv-x="1742" d="M97 0v54h163v974h-163v54h163h941v-54h-163v-422h111q238 0 379 -106.5t141 -338.5q3 -127 -83.5 -252.5t-280.5 -163.5l-16 42q173 35 247.5 142t78.5 232q6 199 -124 295.5t-342 96.5h-111v-499h163v-54h-381v54h163v973h-669v-973h163v-54h-380z" />
<glyph unicode="&#x4a8;" horiz-adv-x="1529" d="M106 717v142q0 272 124.5 444t324.5 167l6 -2l3 -45q-181 0 -292 -163.5t-111 -398.5v-144q0 -295 153 -489.5t406 -194.5q69 0 132 12t120 36q-169 93 -263 255t-94 361v182q0 266 102.5 425t277.5 159t282 -160t107 -424v-184q0 -207 -77 -365.5t-216 -248.5 q68 -25 144.5 -37.5t162.5 -12.5v-53q-100 0 -191 18t-171 53q-69 -35 -148.5 -52.5t-167.5 -17.5q-288 0 -451 207.5t-163 530.5zM670 695q0 -194 92 -349.5t265 -238.5q145 81 224 236t79 352v185q0 237 -89.5 383t-245.5 146q-154 0 -239.5 -147t-85.5 -382v-185z" />
<glyph unicode="&#x4a9;" horiz-adv-x="1243" d="M112 533v94q0 205 91 338.5t235 128.5l6 -2v-44q-112 0 -195 -121.5t-83 -297.5v-96q0 -217 112.5 -358.5t305.5 -141.5q51 0 96.5 9t87.5 28q-128 71 -197.5 194.5t-69.5 282.5v108q0 197 79 321.5t209 124.5q128 0 209 -133.5t81 -333.5v-102q0 -143 -52.5 -261.5 t-145.5 -192.5q52 -18 109 -27t120 -9v-54q-79 0 -150 13.5t-133 40.5q-53 -32 -114.5 -47.5t-128.5 -15.5q-210 0 -341 157.5t-131 396.5zM555 545q0 -152 70.5 -267.5t198.5 -176.5q96 63 148.5 176.5t52.5 254.5v105q0 172 -66.5 291t-169.5 119q-111 0 -172.5 -110 t-61.5 -280v-112z" />
<glyph unicode="&#x4aa;" horiz-adv-x="1373" d="M130 0zM130 719v18q0 330 176 535t461 205q158 0 286.5 -62t202.5 -169v-254h-55v234q-67 90 -179 143.5t-255 53.5q-259 0 -421 -189t-162 -495v-20q0 -307 161 -496.5t412 -189.5q144 0 261 53.5t183 143.5v234h55v-254q-73 -107 -206 -169t-293 -62q-277 0 -452 205.5 t-175 534.5zM724 54h54v-406h-54v406z" />
<glyph unicode="&#x4ab;" horiz-adv-x="1086" d="M104 0zM104 520v42q0 242 117 391t323 149q122 0 226 -50.5t167 -136.5v-232h-54v212q-57 70 -143.5 111.5t-195.5 41.5q-190 0 -288 -136t-98 -350v-42q0 -216 98 -351.5t290 -135.5q137 0 242 75t105 225h46l2 -6q4 -159 -116.5 -253.5t-278.5 -94.5q-207 0 -324.5 149 t-117.5 392zM521 44h54v-406h-54v406z" />
<glyph unicode="&#x4ac;" horiz-adv-x="1277" d="M80 0zM80 1163v293h1114v-293h-54v239h-476v-1348h163v-54h-380v54h163v1348h-476v-239h-54zM773 54h54v-406h-54v406z" />
<glyph unicode="&#x4ad;" horiz-adv-x="1083" d="M90 0zM90 789v293h882v-293h-54v238h-371v-973h163v-54h-380v54h163v973h-349v-238h-54zM656 54h54v-406h-54v406z" />
<glyph unicode="&#x4ae;" horiz-adv-x="1429" d="M55 0zM55 1402v54h316v-54h-131l449 -755l26 -50l27 50l451 755h-131v54h316v-54h-120l-514 -849v-499h163v-54h-381v54h163v499l-515 849h-119z" />
<glyph unicode="&#x4af;" horiz-adv-x="1084" d="M-30 1063q21 11 45 19.5t54 8.5q75 0 121 -42t81 -145l237 -675l48 -146h6l52 146l312 799h-142v54h308v-54h-108l-398 -1023v-420h-54v415l-305 879q-37 105 -71 135t-83 30q-26 0 -48.5 -7t-35.5 -15zM0 0z" />
<glyph unicode="&#x4b0;" horiz-adv-x="1429" d="M55 1402v54h316v-54h-131l449 -755l19 -35h15l19 35l451 755h-131v54h316v-54h-120l-479 -790h274v-54h-307l-2 -5v-499h163v-54h-381v54h163v499l-3 5h-220v54h187l-479 790h-119z" />
<glyph unicode="&#x4b1;" horiz-adv-x="1084" d="M-30 1063q21 11 45 19.5t54 8.5q75 0 121 -42t81 -145l237 -675l48 -145h6l52 145l312 799h-142v54h308v-54h-108l-377 -968h286v-54h-307v-1v-420h-54v415l-2 6h-224v54h205l-284 819q-37 105 -71 135t-83 30q-26 0 -48.5 -7t-35.5 -15z" />
<glyph unicode="&#x4b2;" horiz-adv-x="1391" d="M63 0v54h115l486 689l-466 659h-115v54h338v-54h-156l432 -617l433 617h-155v54h337v-54h-115l-465 -659l486 -689h115v-54h-337v54h155l-454 647l-453 -647h155v-54h-336zM63 0zM1279 54h54v-406h-54v406z" />
<glyph unicode="&#x4b3;" horiz-adv-x="1192" d="M82 0v54h126l361 501l-341 473h-126v54h318v-54h-124l307 -426l306 426h-124v54h318v-54h-126l-341 -473l361 -501h126v-54h-317v54h124l-328 454l-327 -454h124v-54h-317zM82 0zM1069 54h54v-406h-54v406z" />
<glyph unicode="&#x4b4;" horiz-adv-x="1806" d="M77 1162v293h256v1h380v-1h308v-293h-54v239h-417v-1347h930v1348h-163v54h380v-54h-163v-1348h133v-405h-54v351h-1280v54h163v1347h-365v-239h-54z" />
<glyph unicode="&#x4b5;" horiz-adv-x="1457" d="M50 789v293h788v-293h-54v239h-316v-974h659v1028h218v-54h-163v-974h121v-375h-54v321h-998v54h163v974h-310v-239h-54z" />
<glyph unicode="&#x4b6;" horiz-adv-x="1461" d="M59 0zM59 1402v54h217h163v-54h-163v-297q0 -206 106.5 -299.5t318.5 -93.5q99 0 199 15t203 45v630h-163v54h217h163v-54h-163v-1348h163v-54h-380v54h163v665q-104 -29 -205 -45t-197 -16q-239 0 -359 104.5t-120 342.5v297h-163zM1266 54h54v-406h-54v406z" />
<glyph unicode="&#x4b7;" horiz-adv-x="1319" d="M65 0zM65 1028v54h217h163v-54h-163v-180q0 -205 80 -278.5t275 -73.5q79 3 169.5 25.5t145.5 51.5v455h-163v54h380v-54h-163v-974h163v-54h-380v54h163v468q-66 -33 -156 -56.5t-159 -23.5q-221 0 -315 84.5t-94 321.5v180h-163zM1115 54h54v-406h-54v406z" />
<glyph unicode="&#x4b8;" horiz-adv-x="1461" d="M59 1402v54h217h163v-54h-163v-297q0 -206 106.5 -299.5t318.5 -93.5q99 0 199 15t203 45v630h-163v54h217h163v-54h-163v-1348h163v-54h-380v54h163v665q-104 -29 -205 -45t-197 -16q-239 0 -359 104.5t-120 342.5v297h-163zM655 401v682h55v-682h-55z" />
<glyph unicode="&#x4b9;" horiz-adv-x="1316" d="M120 1028v54h217h163v-54h-163v-180q0 -205 80 -278.5t275 -73.5q79 3 169.5 25.5t145.5 51.5v455h-163v54h380v-54h-163v-974h163v-54h-380v54h163v468q-66 -33 -156 -56.5t-159 -23.5q-221 0 -315 84.5t-94 321.5v180h-163zM609 193v556h56v-556h-56z" />
<glyph unicode="&#x4ba;" horiz-adv-x="1328" d="M27 0v54h163v1348h-163v54h163h54h163v-54h-163v-665q103 28 204 44.5t198 16.5q238 0 358.5 -105t120.5 -342v-297h163v-54h-380v54h163v297q0 205 -107 299t-318 94q-100 0 -200 -15.5t-202 -44.5v-630h163v-54h-380z" />
<glyph unicode="&#x4bb;" horiz-adv-x="1278" d="M62 0v54h163v1452h-163v54h217v-706q50 118 147 183t237 65q169 0 256.5 -107t87.5 -337v-604h163v-54h-381v54h163v606q0 213 -78.5 300.5t-209.5 87.5q-175 0 -268 -104.5t-117 -267.5v-622h163v-54h-380zM62 0z" />
<glyph unicode="&#x4bc;" horiz-adv-x="1525" d="M65 1068l3 6h47q0 -115 61 -180t177 -70l6 2v45q0 264 150.5 434t381.5 170q245 0 391.5 -165t146.5 -444v-103h-1016v-204q0 -234 131 -381t392 -147q135 0 244.5 40.5t191.5 113.5l30 -43q-84 -76 -191 -120.5t-275 -44.5q-274 0 -425.5 160t-151.5 422v204 q-143 10 -220.5 89t-73.5 216zM413 818h962v51q0 239 -129.5 395t-354.5 156q-219 0 -348.5 -157t-129.5 -392v-53z" />
<glyph unicode="&#x4bd;" horiz-adv-x="1260" d="M59 852h55q0 -98 35.5 -153t106.5 -63q20 206 146 336t301 130q183 0 298.5 -120t115.5 -322v-83h-811v-13v-64q0 -196 115 -331.5t285 -135.5q121 0 202.5 33t139.5 99l29 -42q-64 -71 -155.5 -107.5t-215.5 -36.5q-185 0 -319.5 149.5t-134.5 371.5v64v18 q-93 9 -143 78.5t-50 191.5zM314 637l3 -6h746v33q0 165 -100 274.5t-260 109.5q-161 0 -268 -117.5t-121 -293.5z" />
<glyph unicode="&#x4be;" horiz-adv-x="1525" d="M61 0zM65 1068l3 6h47q0 -115 61 -180t177 -70l6 2v45q0 264 150.5 434t381.5 170q245 0 391.5 -165t146.5 -444v-103h-1016v-204q0 -234 131 -381t392 -147q135 0 244.5 40.5t191.5 113.5l30 -43q-84 -76 -191 -120.5t-275 -44.5q-274 0 -425.5 160t-151.5 422v204 q-143 10 -220.5 89t-73.5 216zM413 818h962v51q0 239 -129.5 395t-354.5 156q-219 0 -348.5 -157t-129.5 -392v-53zM860 10h54v-406h-54v406z" />
<glyph unicode="&#x4bf;" horiz-adv-x="1260" d="M59 0zM59 852h55q0 -98 35.5 -153t106.5 -63q20 206 146 336t301 130q183 0 298.5 -120t115.5 -322v-83h-811v-13v-64q0 -196 115 -331.5t285 -135.5q121 0 202.5 33t139.5 99l29 -42q-64 -71 -155.5 -107.5t-215.5 -36.5q-185 0 -319.5 149.5t-134.5 371.5v64v18 q-93 9 -143 78.5t-50 191.5zM314 637l3 -6h746v33q0 165 -100 274.5t-260 109.5q-161 0 -268 -117.5t-121 -293.5zM664 54h54v-406h-54v406z" />
<glyph unicode="&#x4c0;" horiz-adv-x="598" d="M109 0v54h163v1348h-163v54h380v-54h-163v-1348h163v-54h-380zM109 0z" />
<glyph unicode="&#x4c1;" horiz-adv-x="2020" d="M55 0zM55 1441q18 12 41.5 19t44.5 7q60 0 109.5 -27.5t118.5 -116.5l422 -550h181v629h-163v54h163h54h163v-54h-163v-629h184l422 550q68 89 117.5 116.5t110.5 27.5q20 0 43.5 -7t42.5 -19l-24 -46q-13 8 -28.5 13t-33.5 5q-53 0 -90.5 -23t-97.5 -102l-420 -548 l551 -686h131v-54h-322v54h112l3 5l-530 661h-171v-666h163v-54h-380v54h163v666h-173l-530 -661l3 -5h113v-54h-322v54h130l553 689l-417 545q-61 79 -98.5 102t-89.5 23q-19 0 -34.5 -5t-27.5 -13zM725 1798l2 6h46q0 -86 54 -139t171 -53q112 0 168 54t56 138h46l2 -6 q4 -107 -70 -174.5t-202 -67.5q-129 0 -203.5 67.5t-69.5 174.5z" />
<glyph unicode="&#x4c2;" horiz-adv-x="1801" d="M75 0v54h137l469 506l-285 354q-63 78 -100 101.5t-88 23.5q-19 0 -34.5 -5t-27.5 -13l-24 46q18 12 41.5 19t44.5 7q58 0 107 -28t121 -116l297 -367h153v446h-163v54h217h163v-54h-163v-446h160l297 367q71 88 120 116t108 28q20 0 43.5 -7t42.5 -19l-24 -46 q-13 8 -28.5 13t-33.5 5q-51 0 -88 -23.5t-100 -101.5l-287 -357l467 -503h137v-54h-158l-500 529h-156v-475h163v-54h-380v54h163v475h-154l-499 -529h-158zM75 0zM637 1455l2 6h46q0 -86 54 -139t171 -53q112 0 168 54t56 138h46l2 -6q4 -107 -70 -174.5t-202 -67.5 q-129 0 -203.5 67.5t-69.5 174.5z" />
<glyph unicode="&#x4c3;" horiz-adv-x="1373" d="M70 0v54h163v1348h-163v54h380v-54h-163v-628h218l578 682h158v-54h-133l-525 -623l2 -5h57q256 0 408 -134.5t152 -430.5q0 -196 -111.5 -364.5t-322.5 -164.5l-6 2v42q180 0 283 147t103 338q0 260 -139 386t-367 126h-355v-667h163v-54h-380z" />
<glyph unicode="&#x4c4;" horiz-adv-x="1250" d="M90 0v54h163v974h-163v54h381v-54h-163v-444h180l457 498h165v-54h-137l-410 -445q218 -10 346.5 -118t128.5 -329q3 -126 -83.5 -252t-280.5 -164l-17 42q173 35 248 142t79 232q6 200 -124 297t-342 97h-4l-1 -1h-205v-475h163v-54h-381z" />
<glyph unicode="&#x4c5;" horiz-adv-x="1503" d="M57 0v54h35q157 0 221 152.5t88 615.5l38 580h-159v54h1139v-54h-163v-1348h163v-54h-380v54h163v1348h-709l-38 -580q-24 -472 -95 -647t-271 -175h-32zM57 0zM1329 -247q46 61 67.5 117.5t21.5 130.5v134h54v-132q0 -88 -28 -158t-78 -124z" />
<glyph unicode="&#x4c6;" horiz-adv-x="1277" d="M69 0v53h35q114 0 170 117t56 420v438h-163v54h808h163v-54h-163v-974h163v-54h-381v54h163v973h-536v-437q0 -318 -65 -454t-218 -136h-32zM69 0zM1048 -247q46 61 67.5 117.5t21.5 130.5v134h54v-132q0 -88 -28 -158t-78 -124z" />
<glyph unicode="&#x4c7;" horiz-adv-x="1535" d="M77 0v54h163v1348h-163v54h217h163v-54h-163v-653h930v653h-163v54h163h217v-54h-163v-1491q0 -167 -75 -257.5t-209 -90.5q-30 0 -56.5 5t-56.5 15l14 52q17 -6 45 -12t54 -6q109 0 169.5 77t60.5 217v784h-930v-641h163v-54h-380z" />
<glyph unicode="&#x4c8;" horiz-adv-x="1325" d="M90 0v54h163v974h-163v54h217h163v-54h-163v-445h669v445h-163v54h381v-54h-163v-1117q0 -167 -75.5 -257.5t-210.5 -90.5q-30 0 -56 5t-56 15l13 52q17 -6 45 -12t54 -6q110 0 170.5 76.5t60.5 217.5v618h-669v-475h163v-54h-380z" />
<glyph unicode="&#x4c9;" horiz-adv-x="1506" d="M71 0v54h163v1348h-163v54h380v-54h-163v-653h930v653h-163v54h163h54h163v-54h-163v-1348h163v-54h-380v54h163v641h-930v-641h163v-54h-380zM71 0zM1345 -247q46 61 67.5 117.5t21.5 130.5v134h54v-132q0 -88 -28 -158t-78 -124z" />
<glyph unicode="&#x4ca;" horiz-adv-x="1351" d="M97 0v54h163v974h-163v54h380v-54h-163v-445h669v445h-163v54h163h55h163v-54h-163v-974h163v-54h-381v54h163v475h-669v-475h163v-54h-380zM97 0zM1111 -247q46 61 67.5 117.5t21.5 130.5v134h54v-132q0 -88 -28 -158t-78 -124z" />
<glyph unicode="&#x4cb;" horiz-adv-x="1461" d="M59 0zM59 1402v54h217h163v-54h-163v-297q0 -206 106.5 -299.5t318.5 -93.5q99 0 199 15t203 45v630h-163v54h217h163v-54h-163v-1348h163v-54h-380v54h163v665q-104 -29 -205 -45t-197 -16q-239 0 -359 104.5t-120 342.5v297h-163zM940 54h54v-406h-54v406z" />
<glyph unicode="&#x4cc;" horiz-adv-x="1319" d="M65 0zM65 1028v54h217h163v-54h-163v-180q0 -205 80 -278.5t275 -73.5q79 3 169.5 25.5t145.5 51.5v455h-163v54h380v-54h-163v-974h163v-54h-380v54h163v468q-66 -33 -156 -56.5t-159 -23.5q-221 0 -315 84.5t-94 321.5v180h-163zM789 54h54v-406h-54v406z" />
<glyph unicode="&#x4cd;" horiz-adv-x="1824" d="M71 0v54h163v1348h-163v54h163h77l596 -1370h6l598 1370h242v-54h-163v-1348h163v-54h-380v54h163v1307l-6 2l-598 -1363h-43l-595 1356l-6 -2v-1300h163v-54h-380zM71 0zM1663 -247q46 61 67.5 117.5t21.5 130.5v134h54v-132q0 -88 -28 -158t-78 -124z" />
<glyph unicode="&#x4ce;" horiz-adv-x="1684" d="M97 0v54h163v974h-163v54h163h74l492 -1000l492 1000h65h163v-54h-163v-974h163v-54h-381v54h163v911l-6 1l-475 -966h-42l-485 990l-6 -1v-935h163v-54h-380zM97 0zM1456 -247q46 61 67.5 117.5t21.5 130.5v134h54v-132q0 -88 -28 -158t-78 -124z" />
<glyph unicode="&#x4cf;" horiz-adv-x="598" d="M109 0v54h163v1348h-163v54h380v-54h-163v-1348h163v-54h-380zM109 0z" />
<glyph unicode="&#x4d0;" horiz-adv-x="1472" d="M55 0v54h107l524 1402h66l525 -1402h107v-54h-309v54h143l-143 381h-712l-142 -381h143v-54h-309zM55 0zM383 489h672l-305 820l-28 82h-6l-27 -82zM441 1796l2 6h46q0 -86 54 -139t171 -53q112 0 168 54t56 138h46l2 -6q4 -107 -70 -174.5t-202 -67.5 q-129 0 -203.5 67.5t-69.5 174.5z" />
<glyph unicode="&#x4d1;" horiz-adv-x="1132" d="M104 0zM104 274q0 146 133 238t357 92h269v158q0 135 -86.5 210.5t-243.5 75.5q-103 0 -192.5 -29t-152.5 -80l-1 -173h-54l1 206q77 57 181.5 93.5t217.5 36.5q174 0 279 -88t105 -254v-542q0 -42 3.5 -83t11.5 -81h130v-54h-177q-13 71 -17.5 106.5t-4.5 76.5v16 q-62 -97 -173.5 -158.5t-262.5 -61.5q-150 0 -236.5 81.5t-86.5 213.5zM158 270q0 -101 74 -169.5t195 -68.5q153 0 266 69t170 191v257h-266q-199 0 -319 -77.5t-120 -201.5zM261 1478l2 6h46q0 -86 54 -139t171 -53q112 0 168 54t56 138h46l2 -6q4 -107 -70 -174.5 t-202 -67.5q-129 0 -203.5 67.5t-69.5 174.5z" />
<glyph unicode="&#x4d2;" horiz-adv-x="1472" d="M55 0v54h107l524 1402h66l525 -1402h107v-54h-309v54h143l-143 381h-712l-142 -381h143v-54h-309zM55 0zM383 489h672l-305 820l-28 82h-6l-27 -82zM416 1671v118h137v-118h-137zM886 1671v118h136v-118h-136z" />
<glyph unicode="&#x4d3;" horiz-adv-x="1132" d="M104 0zM104 274q0 146 133 238t357 92h269v158q0 135 -86.5 210.5t-243.5 75.5q-103 0 -192.5 -29t-152.5 -80l-1 -173h-54l1 206q77 57 181.5 93.5t217.5 36.5q174 0 279 -88t105 -254v-542q0 -42 3.5 -83t11.5 -81h130v-54h-177q-13 71 -17.5 106.5t-4.5 76.5v16 q-62 -97 -173.5 -158.5t-262.5 -61.5q-150 0 -236.5 81.5t-86.5 213.5zM158 270q0 -101 74 -169.5t195 -68.5q153 0 266 69t170 191v257h-266q-199 0 -319 -77.5t-120 -201.5zM236 1353v118h137v-118h-137zM706 1353v118h136v-118h-136z" />
<glyph unicode="&#x4d4;" horiz-adv-x="2026" d="M51 0v54h119l849 1402h776v-293h-54v239h-642l26 -616h588v-54h-586l28 -678h647v239h54v-293h-915v54h160l-15 371h-628l-223 -371h131v-54h-315zM51 0zM490 478h594l-39 924l-5 1l-57 -105z" />
<glyph unicode="&#x4d5;" horiz-adv-x="1779" d="M97 0zM97 284q0 157 111.5 251.5t318.5 94.5h290v90q0 158 -73 243t-219 85q-162 0 -254.5 -78t-92.5 -199l-45 6l-2 6q-5 138 103.5 228.5t290.5 90.5q138 0 227 -73.5t112 -214.5q53 133 157 210.5t236 77.5q188 0 296 -118.5t108 -323.5v-83h-787v-13v-64 q0 -208 99 -337.5t299 -129.5q102 0 186.5 34.5t145.5 96.5l30 -42q-65 -66 -148.5 -104.5t-213.5 -38.5q-143 0 -245 66t-155 185v-12h1q-44 -95 -153 -167t-268 -72q-169 0 -262 82t-93 223zM152 280q0 -117 77.5 -183t221.5 -66q130 0 237 65.5t129 128.5v350h-288 q-185 0 -281 -84t-96 -211zM882 637l2 -5h723v32q0 168 -91.5 276t-258.5 108q-159 0 -260.5 -116.5t-114.5 -294.5z" />
<glyph unicode="&#x4d6;" horiz-adv-x="1270" d="M71 0v54h163v1348h-163v54h1049v-293h-54v239h-778v-616h630v-54h-630v-678h778v239h54v-293h-1049zM71 0zM346 1798l2 6h46q0 -86 54 -139t171 -53q112 0 168 54t56 138h46l2 -6q4 -107 -70 -174.5t-202 -67.5q-129 0 -203.5 67.5t-69.5 174.5z" />
<glyph unicode="&#x4d7;" d="M112 0zM112 500v64q0 233 130 385.5t321 152.5q183 0 298.5 -120t115.5 -322v-83h-811v-13v-64q0 -196 115 -331.5t285 -135.5q121 0 202.5 33t139.5 99l29 -42q-64 -71 -155.5 -107.5t-215.5 -36.5q-185 0 -319.5 149.5t-134.5 371.5zM174 637l3 -6h746v33 q0 165 -100 274.5t-260 109.5q-161 0 -268 -117.5t-121 -293.5zM294 1477l2 6h46q0 -86 54 -139t171 -53q112 0 168 54t56 138h46l2 -6q4 -107 -70 -174.5t-202 -67.5q-129 0 -203.5 67.5t-69.5 174.5z" />
<glyph unicode="&#x4d8;" horiz-adv-x="1388" d="M78 588v123h1117v124q0 260 -136.5 424t-408.5 164q-141 0 -255.5 -41t-199.5 -113l-30 43q88 75 198.5 120t286.5 45q284 0 441.5 -176.5t157.5 -465.5v-172q0 -301 -162.5 -492.5t-410.5 -191.5q-273 0 -435.5 164.5t-162.5 444.5zM132 584q0 -239 145 -395t399 -156 q235 0 375 177t139 441l-2 5h-1056v-72z" />
<glyph unicode="&#x4d9;" horiz-adv-x="1032" d="M87 0zM87 421v83h810q0 1 0.5 5.5t0.5 7.5v64q0 195 -115.5 331t-284.5 136q-122 0 -203.5 -33.5t-138.5 -98.5l-29 42q63 70 154.5 107t216.5 37q184 0 319 -150t135 -371v-64q0 -234 -130.5 -386t-320.5 -152q-184 0 -299 119.5t-115 322.5zM141 417q0 -166 99.5 -275 t260.5 -109q160 0 266.5 117t121.5 294l-3 6h-745v-33z" />
<glyph unicode="&#x4da;" horiz-adv-x="1388" d="M78 0zM78 588v123h1117v124q0 260 -136.5 424t-408.5 164q-141 0 -255.5 -41t-199.5 -113l-30 43q88 75 198.5 120t286.5 45q284 0 441.5 -176.5t157.5 -465.5v-172q0 -301 -162.5 -492.5t-410.5 -191.5q-273 0 -435.5 164.5t-162.5 444.5zM132 584q0 -239 145 -395 t399 -156q235 0 375 177t139 441l-2 5h-1056v-72zM395 1627v118h137v-118h-137zM865 1627v118h136v-118h-136z" />
<glyph unicode="&#x4db;" horiz-adv-x="1032" d="M87 0zM87 421v83h810q0 1 0.5 5.5t0.5 7.5v64q0 195 -115.5 331t-284.5 136q-122 0 -203.5 -33.5t-138.5 -98.5l-29 42q63 70 154.5 107t216.5 37q184 0 319 -150t135 -371v-64q0 -234 -130.5 -386t-320.5 -152q-184 0 -299 119.5t-115 322.5zM141 417q0 -166 99.5 -275 t260.5 -109q160 0 266.5 117t121.5 294l-3 6h-745v-33zM216 1352v118h137v-118h-137zM686 1352v118h136v-118h-136z" />
<glyph unicode="&#x4dc;" horiz-adv-x="2020" d="M55 0zM55 1441q18 12 41.5 19t44.5 7q60 0 109.5 -27.5t118.5 -116.5l422 -550h181v629h-163v54h163h54h163v-54h-163v-629h184l422 550q68 89 117.5 116.5t110.5 27.5q20 0 43.5 -7t42.5 -19l-24 -46q-13 8 -28.5 13t-33.5 5q-53 0 -90.5 -23t-97.5 -102l-420 -548 l551 -686h131v-54h-322v54h112l3 5l-530 661h-171v-666h163v-54h-380v54h163v666h-173l-530 -661l3 -5h113v-54h-322v54h130l553 689l-417 545q-61 79 -98.5 102t-89.5 23q-19 0 -34.5 -5t-27.5 -13zM700 1673v118h137v-118h-137zM1170 1673v118h136v-118h-136z" />
<glyph unicode="&#x4dd;" horiz-adv-x="1801" d="M75 0v54h137l469 506l-285 354q-63 78 -100 101.5t-88 23.5q-19 0 -34.5 -5t-27.5 -13l-24 46q18 12 41.5 19t44.5 7q58 0 107 -28t121 -116l297 -367h153v446h-163v54h217h163v-54h-163v-446h160l297 367q71 88 120 116t108 28q20 0 43.5 -7t42.5 -19l-24 -46 q-13 8 -28.5 13t-33.5 5q-51 0 -88 -23.5t-100 -101.5l-287 -357l467 -503h137v-54h-158l-500 529h-156v-475h163v-54h-380v54h163v475h-154l-499 -529h-158zM75 0zM612 1331v118h137v-118h-137zM1082 1331v118h136v-118h-136z" />
<glyph unicode="&#x4de;" horiz-adv-x="1211" d="M71 0zM76 398l2 6h46q0 -163 125 -267t323 -104q219 0 340.5 92.5t121.5 256.5q0 174 -117 253.5t-350 79.5h-184v56h184q228 0 336 82t108 234q0 153 -110 244.5t-329 91.5q-144 0 -256 -53.5t-178 -143.5v-214h-55v234q73 107 201.5 169t287.5 62q229 0 361 -102 t132 -292q0 -118 -75.5 -208.5t-215.5 -129.5q158 -34 236 -124.5t78 -234.5q0 -190 -143.5 -298.5t-372.5 -108.5q-201 0 -351 109t-145 310zM300 1694v118h137v-118h-137zM770 1694v118h136v-118h-136z" />
<glyph unicode="&#x4df;" horiz-adv-x="1030" d="M84 0zM89 295l2 6h46q0 -114 100.5 -188.5t251.5 -74.5q170 0 259.5 65.5t89.5 183.5q0 124 -87 181t-265 57h-145v55h145q175 0 254 58t79 167t-80.5 174t-249.5 65q-137 0 -235.5 -68t-98.5 -177h-46l-2 6q-6 129 108.5 211t273.5 82q182 0 283.5 -76.5t101.5 -219.5 q0 -85 -54.5 -151t-155.5 -97q115 -27 172 -93.5t57 -170.5q0 -144 -111 -225.5t-293 -81.5q-160 0 -282.5 81.5t-117.5 230.5zM206 1350v118h137v-118h-137zM676 1350v118h136v-118h-136z" />
<glyph unicode="&#x4e0;" horiz-adv-x="1097" d="M83 398l2 6h48q0 -164 109 -267.5t286 -103.5q180 0 280 92.5t100 256.5q0 206 -96.5 301.5t-287.5 95.5h-101v55l481 563l-2 5h-750v-239h-54v293h869l3 -68l-476 -556l2 -5h32q217 0 325.5 -113t108.5 -328q0 -190 -121 -298.5t-313 -108.5q-183 0 -316.5 109 t-128.5 310z" />
<glyph unicode="&#x4e1;" horiz-adv-x="1102" d="M81 23l2 6h48q0 -162 109 -266t286 -104q180 0 280 92.5t100 255.5q0 203 -110 300t-304 97h-71v56l482 562l-2 5h-751v-238h-54v293h869l3 -68l-482 -562h10q220 0 342 -115t122 -326q0 -188 -121 -297t-313 -109q-182 0 -316 109t-129 309z" />
<glyph unicode="&#x4e2;" horiz-adv-x="1552" d="M77 0v54h163v1348h-163v54h163h54h163v-54h-163v-1122l6 -2l935 987v137h-163v54h163h54h163v-54h-163v-1348h163v-54h-380v54h163v1126l-6 2l-935 -988v-140h163v-54h-380zM77 0zM435 1733v53h627v-53h-627z" />
<glyph unicode="&#x4e3;" horiz-adv-x="1352" d="M97 0v54h163v974h-163v54h217h163v-54h-163v-922l6 -2l663 978h55h163v-54h-163v-974h163v-54h-381v54h163v922l-6 2l-663 -978h-217zM97 0zM367 1391v53h627v-53h-627z" />
<glyph unicode="&#x4e4;" horiz-adv-x="1552" d="M77 0v54h163v1348h-163v54h163h54h163v-54h-163v-1122l6 -2l935 987v137h-163v54h163h54h163v-54h-163v-1348h163v-54h-380v54h163v1126l-6 2l-935 -988v-140h163v-54h-380zM77 0zM438 1673v118h137v-118h-137zM908 1673v118h136v-118h-136z" />
<glyph unicode="&#x4e5;" horiz-adv-x="1352" d="M97 0v54h163v974h-163v54h217h163v-54h-163v-922l6 -2l663 978h55h163v-54h-163v-974h163v-54h-381v54h163v922l-6 2l-663 -978h-217zM97 0zM370 1331v118h137v-118h-137zM840 1331v118h136v-118h-136z" />
<glyph unicode="&#x4e6;" horiz-adv-x="1488" d="M130 0zM130 719v18q0 335 168 537.5t440 202.5q271 0 440.5 -202.5t169.5 -537.5v-18q0 -336 -168.5 -538t-439.5 -202q-272 0 -441 202.5t-169 537.5zM185 719q0 -311 151 -498.5t404 -187.5t403.5 187.5t150.5 498.5v20q0 309 -151.5 496.5t-404.5 187.5 q-252 0 -402.5 -187.5t-150.5 -496.5v-20zM439 1694v118h137v-118h-137zM909 1694v118h136v-118h-136z" />
<glyph unicode="&#x4e7;" horiz-adv-x="1155" d="M104 0zM104 520v42q0 238 131.5 389t341.5 151q211 0 342.5 -151t131.5 -389v-42q0 -239 -131.5 -390t-340.5 -151q-211 0 -343 151t-132 390zM158 520q0 -204 114 -345.5t307 -141.5q190 0 304 142t114 345v42q0 199 -115 342.5t-305 143.5q-191 0 -305 -143.5 t-114 -342.5v-42zM284 1351v118h137v-118h-137zM754 1351v118h136v-118h-136z" />
<glyph unicode="&#x4e8;" horiz-adv-x="1372" d="M120 0zM120 719v18q0 335 168 537.5t440 202.5q271 0 440.5 -202.5t169.5 -537.5v-18q0 -336 -168.5 -538t-439.5 -202q-272 0 -441 202.5t-169 537.5zM179 760l3 -5h1094l2 5q0 298 -150.5 480.5t-399.5 182.5t-398.5 -182t-150.5 -481zM180 696q1 -300 151 -481.5 t399 -181.5t398 181.5t151 481.5l-3 5h-1094z" />
<glyph unicode="&#x4e9;" horiz-adv-x="1176" d="M104 0zM104 520v42q0 238 131.5 389t341.5 151q211 0 342.5 -151t131.5 -389v-42q0 -239 -131.5 -390t-340.5 -151q-211 0 -343 151t-132 390zM163 508q-2 -197 111.5 -336t304.5 -139q188 0 301 139t112 336l-2 5h-825zM163 572l2 -5h825l2 5q2 193 -112 334.5 t-303 141.5q-190 0 -303.5 -141t-110.5 -335z" />
<glyph unicode="&#x4ea;" horiz-adv-x="1372" d="M120 0zM120 719v18q0 335 168 537.5t440 202.5q271 0 440.5 -202.5t169.5 -537.5v-18q0 -336 -168.5 -538t-439.5 -202q-272 0 -441 202.5t-169 537.5zM179 760l3 -5h1094l2 5q0 298 -150.5 480.5t-399.5 182.5t-398.5 -182t-150.5 -481zM180 696q1 -300 151 -481.5 t399 -181.5t398 181.5t151 481.5l-3 5h-1094zM440 1668v118h137v-118h-137zM910 1668v118h136v-118h-136z" />
<glyph unicode="&#x4eb;" horiz-adv-x="1176" d="M104 0zM104 520v42q0 238 131.5 389t341.5 151q211 0 342.5 -151t131.5 -389v-42q0 -239 -131.5 -390t-340.5 -151q-211 0 -343 151t-132 390zM163 508q-2 -197 111.5 -336t304.5 -139q188 0 301 139t112 336l-2 5h-825zM163 572l2 -5h825l2 5q2 193 -112 334.5 t-303 141.5q-190 0 -303.5 -141t-110.5 -335zM282 1379v118h137v-118h-137zM752 1379v118h136v-118h-136z" />
<glyph unicode="&#x4ec;" horiz-adv-x="1277" d="M95 0zM95 210v254h55v-234q65 -90 182 -143.5t262 -53.5q248 0 400.5 188t152.5 498v11h-636v54h628l2 5q-9 286 -160 460t-397 174q-144 0 -256 -53.5t-178 -143.5v-234h-55v254q73 107 201.5 169t287.5 62q282 0 449.5 -204t167.5 -536v-18q0 -332 -166.5 -536 t-440.5 -204q-161 0 -294 62t-205 169zM311 1695v118h137v-118h-137zM781 1695v118h136v-118h-136z" />
<glyph unicode="&#x4ed;" horiz-adv-x="1067" d="M135 0zM140 327l2 6h46q0 -150 104.5 -225t242.5 -75q190 0 288 134t96 344l-3 5h-571v54h571l3 5q0 206 -97.5 339.5t-284.5 133.5q-110 0 -196.5 -41.5t-142.5 -111.5v-212h-54v232q62 86 166 136.5t227 50.5q205 0 322.5 -149t117.5 -391v-42q0 -243 -118 -392 t-324 -149q-159 0 -279.5 94.5t-115.5 253.5zM249 1351v118h137v-118h-137zM719 1351v118h136v-118h-136z" />
<glyph unicode="&#x4ee;" horiz-adv-x="1431" d="M33 0zM33 1402v54h317v-54h-132l483 -845l55 -100l20 39l449 906h-136v54h316v-54h-114l-572 -1145q-62 -120 -137 -199t-216 -79q-21 0 -48 4t-39 9l15 51q13 -5 34.5 -7.5t42.5 -2.5q100 0 167 61.5t122 171.5l64 128l-573 1008h-118zM438 1733v53h627v-53h-627z" />
<glyph unicode="&#x4ef;" horiz-adv-x="1185" d="M55 0zM55 1028v54h319v-54h-142l335 -832l40 -108h6l6 16l353 924h-142v54h320v-54h-118l-460 -1208q-44 -114 -102.5 -185.5t-186.5 -71.5q-19 0 -42 3.5t-34 7.5l9 51q11 -3 33 -6t34 -3q92 0 143.5 54t91.5 160l65 176l-410 1022h-118zM308 1391v53h627v-53h-627z" />
<glyph unicode="&#x4f0;" horiz-adv-x="1431" d="M33 0zM33 1402v54h317v-54h-132l483 -845l55 -100l20 39l449 906h-136v54h316v-54h-114l-572 -1145q-62 -120 -137 -199t-216 -79q-21 0 -48 4t-39 9l15 51q13 -5 34.5 -7.5t42.5 -2.5q100 0 167 61.5t122 171.5l64 128l-573 1008h-118zM441 1673v118h137v-118h-137z M911 1673v118h136v-118h-136z" />
<glyph unicode="&#x4f1;" horiz-adv-x="1185" d="M55 0zM55 1028v54h319v-54h-142l335 -832l40 -108h6l6 16l353 924h-142v54h320v-54h-118l-460 -1208q-44 -114 -102.5 -185.5t-186.5 -71.5q-19 0 -42 3.5t-34 7.5l9 51q11 -3 33 -6t34 -3q92 0 143.5 54t91.5 160l65 176l-410 1022h-118zM311 1331v118h137v-118h-137z M781 1331v118h136v-118h-136z" />
<glyph unicode="&#x4f2;" horiz-adv-x="1431" d="M33 0zM33 1402v54h317v-54h-132l483 -845l55 -100l20 39l449 906h-136v54h316v-54h-114l-572 -1145q-62 -120 -137 -199t-216 -79q-21 0 -48 4t-39 9l15 51q13 -5 34.5 -7.5t42.5 -2.5q100 0 167 61.5t122 171.5l64 128l-573 1008h-118zM512 1606l241 261h68l3 -6 l-248 -260h-62zM738 1607l285 260h72l2 -6l-292 -260h-65z" />
<glyph unicode="&#x4f3;" horiz-adv-x="1185" d="M55 0zM55 1028v54h319v-54h-142l335 -832l40 -108h6l6 16l353 924h-142v54h320v-54h-118l-460 -1208q-44 -114 -102.5 -185.5t-186.5 -71.5q-19 0 -42 3.5t-34 7.5l9 51q11 -3 33 -6t34 -3q92 0 143.5 54t91.5 160l65 176l-410 1022h-118zM382 1263l241 261h68l3 -6 l-248 -260h-62zM608 1264l285 260h72l2 -6l-292 -260h-65z" />
<glyph unicode="&#x4f4;" horiz-adv-x="1461" d="M59 0zM59 1402v54h217h163v-54h-163v-297q0 -206 106.5 -299.5t318.5 -93.5q99 0 199 15t203 45v630h-163v54h217h163v-54h-163v-1348h163v-54h-380v54h163v665q-104 -29 -205 -45t-197 -16q-239 0 -359 104.5t-120 342.5v297h-163zM390 1673v118h137v-118h-137z M860 1673v118h136v-118h-136z" />
<glyph unicode="&#x4f5;" horiz-adv-x="1319" d="M65 0zM65 1028v54h217h163v-54h-163v-180q0 -205 80 -278.5t275 -73.5q79 3 169.5 25.5t145.5 51.5v455h-163v54h380v-54h-163v-974h163v-54h-380v54h163v468q-66 -33 -156 -56.5t-159 -23.5q-221 0 -315 84.5t-94 321.5v180h-163zM305 1331v118h137v-118h-137zM775 1331 v118h136v-118h-136z" />
<glyph unicode="&#x4f6;" horiz-adv-x="1203" d="M77 0v54h163v1348h-163v54h1025v-293h-54v239h-754v-1348h163v-54h-380zM77 0zM403 54h54v-406h-54v406z" />
<glyph unicode="&#x4f7;" horiz-adv-x="1030" d="M72 0v54h163v974h-163v54h813v-192h-54v137h-542v-973h163v-54h-380zM72 0zM398 54h54v-406h-54v406z" />
<glyph unicode="&#x4f8;" horiz-adv-x="1648" d="M70 0v54h163v1348h-163v54h163h54v-668h369q227 0 349 -107.5t122 -286.5q0 -180 -122 -287t-349 -107h-586zM70 0zM287 54h369q209 0 312.5 96t103.5 246q0 144 -104 241t-312 97h-369v-680zM287 1402v54h163v-54h-163zM577 1673v118h137v-118h-137zM1047 1673v118h136 v-118h-136zM1223 0v54h163v1348h-163v54h380v-54h-163v-1348h163v-54h-380z" />
<glyph unicode="&#x4f9;" horiz-adv-x="1535" d="M97 0v54h163v974h-163v54h163h54v-412h345q182 0 284.5 -93.5t102.5 -241.5q0 -150 -102.5 -242.5t-284.5 -92.5h-562zM97 0zM314 54h345q166 0 249.5 80.5t83.5 202.5q0 117 -84 198t-249 81h-345v-562zM314 1028v54h163v-54h-163zM506 1331v118h137v-118h-137z M976 1331v118h136v-118h-136zM1126 0v54h163v974h-163v54h217v-1028h163v-54h-380z" />
<glyph unicode="&#x4fa;" horiz-adv-x="1122" d="M39 0zM39 793v54h587v-54h-587zM77 0v54h163v1348h-163v54h1025v-293h-54v239h-754v-1348h163v-54h-380zM100 -376l13 52q9 0 43.5 -9.5t55.5 -9.5q91 0 141 62t50 173v108h54v-108q0 -138 -65 -213t-180 -75q-30 0 -55.5 5t-56.5 15z" />
<glyph unicode="&#x4fb;" horiz-adv-x="843" d="M46 588v54h587v-54h-587zM72 0v54h163v974h-163v54h813v-192h-54v137h-542v-973h163v-54h-380zM95 -376l13 52q9 0 43.5 -9.5t55.5 -9.5q91 0 141 62t50 173v108h54v-108q0 -138 -65 -213t-180 -75q-30 0 -55.5 5t-56.5 15z" />
<glyph unicode="&#x4fc;" horiz-adv-x="1391" d="M63 0v54h115l486 689l-466 659h-115v54h338v-54h-156l432 -617l433 617h-155v54h337v-54h-115l-465 -659l486 -689h115v-54h-337v54h155l-454 647l-453 -647h155v-54h-336zM63 0zM976 -376l13 52q9 0 43.5 -9.5t55.5 -9.5q91 0 141 62t50 173v108h54v-108 q0 -138 -65 -213t-180 -75q-30 0 -55.5 5t-56.5 15z" />
<glyph unicode="&#x4fd;" horiz-adv-x="1192" d="M82 0v54h126l361 501l-341 473h-126v54h318v-54h-124l307 -426l306 426h-124v54h318v-54h-126l-341 -473l361 -501h126v-54h-317v54h124l-328 454l-327 -454h124v-54h-317zM82 0zM766 -376l13 52q9 0 43.5 -9.5t55.5 -9.5q91 0 141 62t50 173v108h54v-108 q0 -138 -65 -213t-180 -75q-30 0 -55.5 5t-56.5 15z" />
<glyph unicode="&#x4fe;" horiz-adv-x="1391" d="M63 0v54h115l465 660h-206v54h209l-448 634h-115v54h338v-54h-156l432 -617l433 617h-155v54h337v-54h-115l-448 -634h275v-54h-272l466 -660h115v-54h-337v54h155l-454 647l-453 -647h155v-54h-336z" />
<glyph unicode="&#x4ff;" horiz-adv-x="1192" d="M82 0v54h126l343 476h-215v54h212l-320 444h-126v54h318v-54h-124l307 -426l306 426h-124v54h318v-54h-126l-320 -444h266v-54h-269l343 -476h126v-54h-317v54h124l-328 454l-327 -454h124v-54h-317z" />
<glyph unicode="&#x2000;" horiz-adv-x="942" />
<glyph unicode="&#x2001;" horiz-adv-x="1884" />
<glyph unicode="&#x2002;" horiz-adv-x="942" />
<glyph unicode="&#x2003;" horiz-adv-x="1884" />
<glyph unicode="&#x2004;" horiz-adv-x="628" />
<glyph unicode="&#x2005;" horiz-adv-x="471" />
<glyph unicode="&#x2006;" horiz-adv-x="314" />
<glyph unicode="&#x2007;" horiz-adv-x="314" />
<glyph unicode="&#x2008;" horiz-adv-x="235" />
<glyph unicode="&#x2009;" horiz-adv-x="376" />
<glyph unicode="&#x200a;" horiz-adv-x="104" />
<glyph unicode="&#x2010;" horiz-adv-x="789" d="M154 599v54h470v-54h-470z" />
<glyph unicode="&#x2011;" horiz-adv-x="789" d="M154 599v54h470v-54h-470z" />
<glyph unicode="&#x2012;" horiz-adv-x="789" d="M154 599v54h470v-54h-470z" />
<glyph unicode="&#x2013;" horiz-adv-x="1412" d="M161 721zM161 721v54h1086v-54h-1086z" />
<glyph unicode="&#x2014;" horiz-adv-x="1673" d="M165 721zM165 721v54h1336v-54h-1336z" />
<glyph unicode="&#x2018;" horiz-adv-x="320" d="M101 1128v168q0 88 27.5 158t78.5 124l37 -32q-47 -61 -68 -117.5t-21 -130.5v-170h-54z" />
<glyph unicode="&#x2019;" horiz-adv-x="320" d="M77 1143q46 60 67.5 116.5t21.5 131.5v169h54v-167q0 -89 -28 -159t-78 -123z" />
<glyph unicode="&#x201a;" horiz-adv-x="300" d="M47 -150q46 61 67.5 117t21.5 131v170h54v-168q0 -89 -28 -158.5t-78 -123.5z" />
<glyph unicode="&#x201c;" horiz-adv-x="500" d="M101 1128v168q0 88 27.5 158t78.5 124l37 -32q-47 -61 -68 -117.5t-21 -130.5v-170h-54zM101 1128zM281 1128v168q0 88 27.5 158t78.5 124l37 -32q-47 -61 -68 -117.5t-21 -130.5v-170h-54z" />
<glyph unicode="&#x201d;" horiz-adv-x="502" d="M77 1111zM77 1143q46 60 67.5 116.5t21.5 131.5v169h54v-167q0 -89 -28 -159t-78 -123zM259 1143q46 60 67.5 116.5t21.5 131.5v169h54v-167q0 -89 -28 -159t-78 -123z" />
<glyph unicode="&#x201e;" horiz-adv-x="481" d="M47 -150q46 61 67.5 117t21.5 131v170h54v-168q0 -89 -28 -158.5t-78 -123.5zM218 -150q46 61 67.5 117t21.5 131v170h54v-168q0 -89 -28 -158.5t-78 -123.5z" />
<glyph unicode="&#x2020;" horiz-adv-x="1124" d="M63 1024v58h475v374h54v-374h461v-58h-461v-1024h-54v1024h-475z" />
<glyph unicode="&#x2021;" horiz-adv-x="1139" d="M71 0v54h453v973h-453v55h453v374h55v-374h481v-55h-481v-973h481v-54h-481v-416h-55v416h-453z" />
<glyph unicode="&#x2022;" horiz-adv-x="655" d="M135 703v70q0 70 45 115t121 45t122 -45.5t46 -114.5v-70q0 -70 -45.5 -114t-121.5 -44q-77 0 -122 44t-45 114z" />
<glyph unicode="&#x2026;" horiz-adv-x="1255" d="M183 0v130h86v-130h-86zM183 0zM567 0v130h86v-130h-86zM936 0v130h86v-130h-86z" />
<glyph unicode="&#x202f;" horiz-adv-x="376" />
<glyph unicode="&#x2030;" horiz-adv-x="1957" d="M76 1099v77q0 126 75.5 213.5t195.5 87.5q119 0 195.5 -87.5t76.5 -213.5v-77q0 -126 -76 -212.5t-194 -86.5q-121 0 -197 86.5t-76 212.5zM131 1099q0 -100 56.5 -172t161.5 -72q103 0 159 72t56 172v77q0 100 -57 173t-160 73q-102 0 -159 -73.5t-57 -172.5v-77z M394 162l711 1138l45 -31l-711 -1138zM831 279v78q0 125 75.5 212.5t194.5 87.5q87 0 151 -48.5t94 -127.5q32 79 99 127.5t154 48.5q120 0 196 -87t76 -213v-78q0 -126 -75.5 -213t-194.5 -87q-88 0 -155.5 48t-99.5 128q-30 -80 -93.5 -128t-149.5 -48q-120 0 -196 87 t-76 213zM886 279q0 -101 56 -173t161 -72q103 0 159.5 72t56.5 173v78q0 106 -56 175.5t-162 69.5q-103 0 -159 -70t-56 -175v-78zM1374 279q0 -101 56 -173t161 -72q103 0 158.5 72t55.5 173v78q0 106 -55.5 175.5t-160.5 69.5q-104 0 -159.5 -69.5t-55.5 -175.5v-78z" />
<glyph unicode="&#x2039;" horiz-adv-x="559" d="M68 551v19l295 370h70l-294 -380l294 -379h-70z" />
<glyph unicode="&#x203a;" horiz-adv-x="557" d="M83 171l293 379l-293 390h70l294 -380v-19l-294 -370h-70z" />
<glyph unicode="&#x2044;" horiz-adv-x="871" d="M42 162l711 1138l45 -31l-711 -1138z" />
<glyph unicode="&#x205f;" horiz-adv-x="471" />
<glyph unicode="&#x20ac;" horiz-adv-x="1047" d="M71 553v55h187v222h-187v56h187v56q0 244 130.5 389.5t342.5 145.5q54 0 107 -8t115 -23v-58q-53 16 -109.5 25.5t-112.5 9.5q-193 0 -306 -128.5t-113 -350.5v-58h593v-56h-593v-222h593v-55h-593v-39q0 -219 114.5 -350t306.5 -131q57 0 113 8.5t107 25.5v-57 q-52 -15 -108 -23t-112 -8q-212 0 -343.5 145t-131.5 390v39h-187z" />
<glyph unicode="&#x2116;" horiz-adv-x="2229" d="M63 0v54h163v1348h-163v54h163h55l934 -1353l6 2v1297h-163v54h217h163v-54h-163v-1402h-54l-934 1356l-6 -2v-1300h163v-54h-381zM1479 1020v117q0 148 82 241.5t222 93.5t222.5 -93.5t82.5 -241.5v-117q0 -149 -82 -241.5t-221 -92.5q-141 0 -223.5 92.5t-82.5 241.5z M1533 1020q0 -125 63 -202.5t189 -77.5q120 0 185 78.5t65 201.5v117q0 122 -65 201.5t-187 79.5q-121 0 -185.5 -79.5t-64.5 -201.5v-117zM1537 403v54h530v-54h-530z" />
<glyph unicode="&#x2122;" horiz-adv-x="1238" d="M98 1399v57h384v-57h-158v-480h-56v480h-170zM560 919v537h75l181 -452h6l183 452h69v-537h-55v421l-6 1l-169 -422h-51l-172 436l-6 -1v-435h-55z" />
<glyph unicode="&#x2202;" horiz-adv-x="1154" d="M78 446q0 241 118.5 374t330.5 133q136 0 244 -66.5t155 -178.5l4 5q-8 322 -164.5 502.5t-432.5 291.5l20 50q336 -135 489.5 -348t153.5 -574v-100q0 -245 -131.5 -400.5t-330.5 -155.5t-327.5 134.5t-128.5 332.5zM133 446q0 -164 109.5 -286.5t295.5 -122.5 q179 0 291.5 139.5t112.5 358.5v43q-41 129 -148 223t-267 94q-198 0 -296 -124.5t-98 -324.5z" />
<glyph unicode="&#x2206;" horiz-adv-x="1404" d="M31 0l616 1456h65l617 -1456h-1298zM113 54h1133l-537 1271l-27 72h-6l-27 -72z" />
<glyph unicode="&#x220f;" horiz-adv-x="1461" d="M60 1402v54h1235v-54h-163v-1674h-54v1674h-801v-1674h-54v1674h-163z" />
<glyph unicode="&#x2211;" horiz-adv-x="1231" d="M69 -227l596 819l-596 820v44h37l2 -3v3h1010v-293h-54v240h-919l583 -799v-24l-583 -796h977v239h54v-293h-1107v43z" />
<glyph unicode="&#x221a;" horiz-adv-x="1118" d="M61 651v54h163l171 -466l50 -150h6l47 150l378 1217h58l-459 -1456h-52v1l-238 650h-124z" />
<glyph unicode="&#x221e;" horiz-adv-x="2125" d="M106 497v88q0 216 124.5 366.5t328.5 150.5q200 0 323 -149.5t187 -329.5q62 179 186.5 329t325.5 150q203 0 327.5 -151t124.5 -366v-88q0 -217 -125 -367.5t-329 -150.5q-201 0 -324.5 149.5t-185.5 329.5q-64 -180 -186 -329.5t-322 -149.5q-206 0 -330.5 150.5 t-124.5 367.5zM160 497q0 -185 106 -324.5t295 -139.5q215 0 344.5 209.5t129.5 277.5v42q0 67 -129.5 276.5t-346.5 209.5q-188 0 -293.5 -140.5t-105.5 -322.5v-88zM1104 520q29 -117 143 -302t332 -185q188 0 294 139.5t106 324.5v88q0 182 -106 322.5t-292 140.5 q-219 0 -334 -185.5t-143 -300.5v-42z" />
<glyph unicode="&#x222b;" horiz-adv-x="692" d="M-90 -417l13 52q19 -6 46.5 -12t52.5 -6q110 0 170.5 76.5t60.5 217.5v1349q0 154 74 237.5t208 83.5q34 0 66.5 -4t61.5 -13l-8 -52q-30 8 -55.5 11.5t-63.5 3.5q-108 0 -168.5 -70.5t-60.5 -196.5v-1349q0 -167 -75 -257.5t-210 -90.5q-29 0 -55 5t-57 15z" />
<glyph unicode="&#x2248;" horiz-adv-x="1154" d="M101 447q47 68 109 107t127 39q69 1 101 -11t133 -62q95 -49 126 -61t96 -12q63 0 123 39.5t109 110.5l6 -64q-48 -69 -110 -107.5t-126 -38.5q-66 0 -99 12.5t-119 56.5q-111 55 -140.5 66.5t-97.5 10.5q-64 0 -124 -40t-108 -110zM111 837q47 68 109 107t127 39 q69 1 101 -11t133 -62q95 -49 126 -61t96 -12q63 0 123 39.5t109 110.5l7 -66q-48 -69 -110 -107.5t-126 -38.5q-66 0 -99 12.5t-119 56.5q-111 55 -140.5 66.5t-97.5 10.5q-64 0 -124 -40t-108 -110z" />
<glyph unicode="&#x2260;" horiz-adv-x="1035" d="M147 436v54h268l196 353h-464v54h494l165 297l36 -28l-149 -269h288v-54h-318l-196 -353h514v-54h-544l-163 -294l-36 28l147 266h-238z" />
<glyph unicode="&#x2264;" horiz-adv-x="1052" d="M149 1v54h835v-54h-835zM149 1zM158 554v45l837 340v-52l-661 -278l-119 -33v-5l119 -33l661 -272v-54z" />
<glyph unicode="&#x2265;" horiz-adv-x="1043" d="M138 2v54h835v-54h-835zM138 2zM148 216v53l660 277l118 32v6l-118 33l-660 273v53l836 -341v-45z" />
<glyph unicode="&#x25ca;" horiz-adv-x="1025" d="M55 727l421 729h51l420 -729l-420 -727h-51zM114 727l332 -571l55 -107l55 107l333 571l-333 573l-55 106l-55 -106z" />
<glyph unicode="&#x25fc;" horiz-adv-x="1080" d="M0 0v1080h1080v-1080h-1080z" />
</font>
</defs>
</svg>
